Скачать через торрент Тайна печати дракона Фильм бесплатно в хорошем качестве torrent

Скачивайте на UnionPeer.org фильмы через торрент без регистрации. Новинки кино в хорошем качестве через торрент. На UnionPeer.org можно скачать через торрент фильмы 2014 и 2015 годов. Самые новые фильмы.

Скачать торрент Тайна печати дракона бесплатно через .torrent фильм мультфильм сериал

Статистика раздачи
Размер:  2.04 GB   |    Зарегистрирован:  1 месяц 10 дней   |    .torrent скачан:  111 раз   |   
Раздают:  3  
 

Скачать Тайна печати дракона (2019) WEB-DLRip-AVC от Files-x | D через torrent

 
загрузка...
 
Автор Сообщение

Galfimbul

avatar Galfimbul


Тайна печати дракона



[b]Год выпуска:
2019
Жанр: Приключения
Режиссер: Олег Степченко
В ролях: Джейсон Флеминг, Арнольд Шварценеггер, Чарльз Дэнс, Джеки Чан, Синтун Яо, Кристофер Фэйрбэнк, Рутгер Хауэр, Мартин Клебба, Юрий Колокольников, Павел Воля

О фильме: Английский путешественник Джонатан Грин получает от Петра Первого заказ на изготовление карт Дальнего Востока России. Ему вновь предстоит долгий путь, полный невероятных приключений, который приведет его в Китай. Картограф столкнется с массой головокружительных открытий, неожиданных встреч с диковинными существами, китайскими принцессами, мастерами смертоносных боевых искусств и самим Лун-Ван, Царем всех драконов. Что может быть опаснее, чем посмотреть в глаза Вию? Разве что встретиться с ним вновь. Что на этот раз окажется сильнее - непоколебимый скептицизм ученого или древняя черная магия, уже давно захватившая власть в Восточных землях?

Страна: Россия, Китай
Студия: Buffalo 8 Productions, CTB Film Company, China Film Group Corporation
Продолжительность: 01:54:27

Файл
Кодек: h.264
Качество: WEB-DLRip-AVC
Видео: MPEG-4 AVC, ~ 2362 Кбит/с, 1024x576, 25 кадр/с
Аудио: AC3, 2 ch, 192 Кбит/с
Перевод: Дублированный
Субтитры: Русские (hardsub, full)
General
Unique ID : 187805444848876500136727585720505984373 (0x8D4A0353A9A784F6A4BC7D8FC807E575)
Complete name : F:TajnaPechatiDrakona.(2019).WEB-DLRip.(AVC).by.Серый1779.Files-x.mkv
Format : Matroska
Format version : Version 2
File size : 2.04 GiB
Duration : 1 h 54 min
Overall bit rate : 2 554 kb/s
Encoded date : UTC 2019-11-05 04:22:04
Writing application : mkvmerge v7.8.0 ('River Man') 32bit built on Apr 3 2015 12:11:22
Writing library : libebml v1.3.1 + libmatroska v1.4.2

Video
ID : 1
Format : AVC
Format/Info : Advanced Video Codec
Format profile : High@L4.1
Format settings : CABAC / 10 Ref Frames
Format settings, CABAC : Yes
Format settings, RefFrames : 10 frames
Codec ID : V_MPEG4/ISO/AVC
Duration : 1 h 54 min
Bit rate : 2 362 kb/s
Width : 1 024 pixels
Height : 576 pixels
Display aspect ratio : 16:9
Frame rate mode : Constant
Frame rate : 25.000 FPS
Color space : YUV
Chroma subsampling : 4:2:0
Bit depth : 8 bits
Scan type : Progressive
Bits/(Pixel*Frame) : 0.160
Stream size : 1.85 GiB (90%)
Writing library : x264 core 146 r2538 121396c
Encoding settings : cabac=1 / ref=10 / deblock=1:-2:-1 / analyse=0x3:0x133 / me=umh / subme=11 / psy=1 / psy_rd=1.00:0.08 / mixed_ref=1 / me_range=32 / chroma_me=1 / trellis=2 / 8x8dct=1 / cqm=0 / deadzone=21,11 / fast_pskip=0 / chroma_qp_offset=-3 / threads=18 / lookahead_threads=4 / sliced_threads=0 / nr=0 / decimate=1 / interlaced=0 / bluray_compat=0 / constrained_intra=0 / bframes=11 / b_pyramid=2 / b_adapt=2 / b_bias=0 / direct=1 / weightb=1 / open_gop=0 / weightp=2 / keyint=250 / keyint_min=25 / scenecut=40 / intra_refresh=0 / rc=2pass / mbtree=0 / bitrate=2362 / ratetol=1.0 / qcomp=0.60 / qpmin=0 / qpmax=69 / qpstep=4 / cplxblur=20.0 / qblur=0.5 / ip_ratio=1.40 / pb_ratio=1.30 / aq=2:1.00
Default : Yes
Forced : No
Color range : Limited
Color primaries : BT.709
Transfer characteristics : BT.709
Matrix coefficients : BT.709

Audio
ID : 2
Format : AC-3
Format/Info : Audio Coding 3
Format settings, Endianness : Big
Codec ID : A_AC3
Duration : 1 h 54 min
Bit rate mode : Constant
Bit rate : 192 kb/s
Channel(s) : 2 channels
Channel positions : Front: L R
Sampling rate : 48.0 kHz
Frame rate : 31.250 FPS (1536 SPF)
Bit depth : 16 bits
Compression mode : Lossy
Stream size : 157 MiB (8%)
Service kind : Complete Main
Default : Yes
Forced : No
Релиз от:
Источник http://BlaTor.org

Трекер:  [ 05-Ноя-2019 12:50 ]

  

Скачать .torrent

Размер .torrent файла 10 KB


Размер: 2.04 GB
Хэш (hash) релиза: d8ac04df5ac2c7dc62501dca9ad4331575241b7c
Подписка на обновления:

Торренты, похожие на Тайна печати дракона скачать торрент

Форум Название Автор Размер S L Добавлен
Российские фильмы 2016-2018 (Новинки русского кино) ·%· Тайна печати дракона (2019) WEBRip от ExKinoRay | KПK | D Galfimbul 541841401517 MB 0 0 1573236614

21:10

8-Ноя-19

Российские фильмы 2016-2018 (Новинки русского кино) ·%· Тайна печати дракона (2019) WEBRip от ExKinoRay | D Galfimbul 783290368747 MB 0 0 1573146017

20:00

7-Ноя-19

Российские фильмы 2016-2018 (Новинки русского кино) ·%· Тайна печати дракона (2019) WEBRip-AVC от ExKinoRay | D Galfimbul 780720702745 MB 0 0 1572973828

20:10

5-Ноя-19

Российские фильмы 2016-2018 (Новинки русского кино) ·%· Тайна печати дракона (2019) WEBRip-AVC от OllanDGroup | D Galfimbul 20217528621.88 GB 0 0 1572878440

17:40

4-Ноя-19

Российские фильмы 2016-2018 (Новинки русского кино) ·%· Тайна печати дракона (2019) WEBRip от Scarabey | D Galfimbul 15551057921.45 GB 0 0 1572864682

13:51

4-Ноя-19

Российские фильмы 2016-2018 (Новинки русского кино) ·%· Тайна печати дракона (2019) WEBRip-AVC от ExKinoRay | D Galfimbul 15550769771.45 GB 0 0 1572835856

05:50

4-Ноя-19

Российские фильмы 2016-2018 (Новинки русского кино) ·%· Тайна печати дракона (2019) WEBRip 1080p | D Galfimbul 37439532683.49 GB 4 0 1572809419

22:30

3-Ноя-19

Еще никто не оставлял запись к записи скачать торрент Тайна печати дракона . Будь первым!

!Обратная связь