Скачать через торрент Невидимый гость Contratiempo Фильм бесплатно в хорошем качестве torrent

Скачивайте на UnionPeer.org фильмы через торрент без регистрации. Новинки кино в хорошем качестве через торрент. На UnionPeer.org можно скачать через торрент фильмы 2014 и 2015 годов. Самые новые фильмы.

Скачать торрент Невидимый гость Contratiempo бесплатно через .torrent фильм мультфильм сериал

Статистика раздачи
Размер:  6.52 GB   |    Зарегистрирован:  3 года 10 месяцев   |    .torrent скачан:  41 раз   |   
Раздают:  1  
 

Скачать Невидимый гость / Contratiempo (2016) BDRip 1080p | D, P, L1 через torrent

 
 
Автор Сообщение

Galfimbul

avatar Galfimbul


Название: Невидимый гость
Оригинальное название: Contratiempo
Год выпуска: 2016
Жанр: триллер, криминал, детектив
Режиссер: Ориол Паоло
В ролях: Марио Касас (Adri?n Doria), Ана Вахенер (Virginia Goodman), Хосе Коронадо (Tom?s Garrido), Барбара Ленни (Laura Vidal), Франсеск Орелья (F?lix Leiva), Пако Тоус (Conductor), Давид Сельвас (Bruno), I?igo Gastesi (Daniel Garrido), Сан Еламос (Sonia), Манель Дуэсо (Inspector Mil?n), Бланка Мартинес (Virginia Goodman Real), Пере Т. Брасо (Agente 1)

О фильме: Молодого бизнесмена Адриана Дориа обвиняют в убийстве любовницы, и он решает воспользоваться услугами Вирджинии Гудман, лучшего в стране специалиста по выходу из самых сложных ситуаций. Адриан содержится под домашним арестом, а завтра состоится судебное заседание, поэтому вечером к нему приходит Вирджиния, чтобы придумать наилучшую стратегию защиты. Для неё это последнее дело, и она не собирается его проигрывать.



Страна: Испания
Студия: Atresmedia, Colos? Producciones, Nostromo Pictures, Nostromo Pictures
Продолжительность: 01:46:12
Перевод: Профессиональный (дублированный), Профессиональный (многоголосый, закадровый), Любительский (одноголосый, закадровый)

Файл
Качество: BDRip 1080p | qqss44
Формат: Matroska
Видео: 1920x802 at 24.000 fps, MPEG-4 AVC, ~7000 kbps avg
Аудио#1: Russian: 48 kHz, AC3, 3/2 (L,C,R,l,r) + LFE ch, ~448 kbps avg |Дубляж, Blu-ray RUS|
Аудио#2: Russian: 48 kHz, AC3, 3/2 (L,C,R,l,r) + LFE ch, ~448 kbps avg |Многоголосый закадровый, AlexFilm|
Аудио#3: Russian: 48 kHz, AC3, 3/2 (L,C,R,l,r) + LFE ch, ~448 kbps avg |Одноголосый закадровый, С.Малиновский|
Аудио#4: Spanish: 48 kHz, AC3, 3/2 (L,C,R,l,r) + LFE ch, ~448 kbps avg
Субтитры: Russian (Full), English (Full)

***Сохранены оригинальные главы как на Blu-ray
[li]Оригинальное название фильма можно перевести как «Непредвиденное затруднение».[/li]
General
Unique ID : 234475936042815816287604417063163147257 (0xB0666C328C68ED459726AF65C02233F9)
Complete name : Contratiempo.2016.BDRip.1080p.3xRus.Spa.mkv
Format : Matroska
Format version : Version 2
File size : 6.52 GiB
Duration : 1 h 46 min
Overall bit rate : 8 790 kb/s
Movie name : Невидимый гость / Contratiempo (2016)
Encoded date : UTC 2020-04-10 18:20:35
Writing application : mkvmerge v5.8.0 ('No Sleep / Pillow') built on Sep 2 2012 15:37:04
Writing library : libebml v1.2.3 + libmatroska v1.3.0

Video
ID : 1
Format : AVC
Format/Info : Advanced Video Codec
Format profile : [email protected]
Format settings : CABAC / 5 Ref Frames
Format settings, CABAC : Yes
Format settings, Reference fra : 5 frames
Codec ID : V_MPEG4/ISO/AVC
Duration : 1 h 46 min
Bit rate : 7 000 kb/s
Width : 1 920 pixels
Height : 802 pixels
Display aspect ratio : 2.40:1
Frame rate mode : Constant
Frame rate : 24.000 FPS
Color space : YUV
Chroma subsampling : 4:2:0
Bit depth : 8 bits
Scan type : Progressive
Bits/(Pixel*Frame) : 0.189
Stream size : 5.06 GiB (78%)
Writing library : x264 core 152 r2851 ba24899
Encoding settings : cabac=1 / ref=5 / deblock=1:-3:-3 / analyse=0x3:0x113 / me=umh / subme=11 / psy=1 / psy_rd=1.00:0.00 / mixed_ref=1 / me_range=32 / chroma_me=1 / trellis=2 / 8x8dct=1 / cqm=0 / deadzone=21,11 / fast_pskip=0 / chroma_qp_offset=-2 / threads=12 / lookahead_threads=2 / sliced_threads=0 / nr=0 / decimate=0 / interlaced=0 / bluray_compat=0 / constrained_intra=0 / bframes=9 / b_pyramid=2 / b_adapt=2 / b_bias=0 / direct=3 / weightb=1 / open_gop=0 / weightp=2 / keyint=250 / keyint_min=23 / scenecut=40 / intra_refresh=0 / rc_lookahead=40 / rc=2pass / mbtree=0 / bitrate=7000 / ratetol=1.0 / qcomp=0.60 / qpmin=0 / qpmax=69 / qpstep=4 / cplxblur=20.0 / qblur=0.5 / vbv_maxrate=50000 / vbv_bufsize=62500 / nal_hrd=none / filler=0 / ip_ratio=1.40 / pb_ratio=1.30 / aq=3:0.70
Language : English
Default : Yes
Forced : No

Audio #1
ID : 2
Format : AC-3
Format/Info : Audio Coding 3
Commercial name : Dolby Digital
Codec ID : A_AC3
Duration : 1 h 46 min
Bit rate mode : Constant
Bit rate : 448 kb/s
Channel(s) : 6 channels
Channel layout : L R C LFE Ls Rs
Sampling rate : 48.0 kHz
Frame rate : 31.250 FPS (1536 SPF)
Bit depth : 16 bits
Compression mode : Lossy
Stream size : 340 MiB (5%)
Title : Blu-ray RUS
Language : Russian
Service kind : Complete Main
Default : Yes
Forced : No

Audio #2
ID : 3
Format : AC-3
Format/Info : Audio Coding 3
Commercial name : Dolby Digital
Codec ID : A_AC3
Duration : 1 h 46 min
Bit rate mode : Constant
Bit rate : 448 kb/s
Channel(s) : 6 channels
Channel layout : L R C LFE Ls Rs
Sampling rate : 48.0 kHz
Frame rate : 31.250 FPS (1536 SPF)
Bit depth : 16 bits
Compression mode : Lossy
Stream size : 340 MiB (5%)
Title : AlexFilm
Language : Russian
Service kind : Complete Main
Default : No
Forced : No

Audio #3
ID : 4
Format : AC-3
Format/Info : Audio Coding 3
Commercial name : Dolby Digital
Codec ID : A_AC3
Duration : 1 h 46 min
Bit rate mode : Constant
Bit rate : 448 kb/s
Channel(s) : 6 channels
Channel layout : L R C LFE Ls Rs
Sampling rate : 48.0 kHz
Frame rate : 31.250 FPS (1536 SPF)
Bit depth : 16 bits
Compression mode : Lossy
Stream size : 340 MiB (5%)
Title : С.Малиновский
Language : Russian
Service kind : Complete Main
Default : No
Forced : No

Audio #4
ID : 5
Format : AC-3
Format/Info : Audio Coding 3
Commercial name : Dolby Digital
Codec ID : A_AC3
Duration : 1 h 46 min
Bit rate mode : Constant
Bit rate : 448 kb/s
Channel(s) : 6 channels
Channel layout : L R C LFE Ls Rs
Sampling rate : 48.0 kHz
Frame rate : 31.250 FPS (1536 SPF)
Bit depth : 16 bits
Compression mode : Lossy
Stream size : 340 MiB (5%)
Language : Spanish
Service kind : Complete Main
Default : No
Forced : No

Text #1
ID : 6
Format : UTF-8
Codec ID : S_TEXT/UTF8
Codec ID/Info : UTF-8 Plain Text
Title : Full
Language : Russian
Default : No
Forced : No

Text #2
ID : 7
Format : UTF-8
Codec ID : S_TEXT/UTF8
Codec ID/Info : UTF-8 Plain Text
Title : Full
Language : English
Default : No
Forced : No

Menu
00:00:00.000 : en:Chapter 1
00:09:32.000 : en:Chapter 2
00:14:36.625 : en:Chapter 3
00:23:51.208 : en:Chapter 4
00:32:06.333 : en:Chapter 5
00:42:02.916 : en:Chapter 6
00:51:01.958 : en:Chapter 7
01:00:13.375 : en:Chapter 8
01:04:59.041 : en:Chapter 9
01:13:25.000 : en:Chapter 10
01:24:22.708 : en:Chapter 11
01:32:07.500 : en:Chapter 12
Источник http://listRutor.org

Внимание! AdBlock блокирует показ скриншотов, все вопросы к разработчикам )))
Трекер:  [ 11-Апр-2020 14:40 ]

  

Скачать .torrent

Размер .torrent файла 16 KB


Размер: 6.52 GB
Хэш (hash) релиза: 00d8769cccabb98fac90cd173bfd21b368d7ec08
Подписка на обновления:

Торренты, похожие на Невидимый гость Contratiempo скачать торрент

Форум Название Автор Размер S L Добавлен
Зарубежные фильмы 2016-2019 (Новинки зарубежного кино) ·%· Невидимый гость / Contratiempo (2016) BDRip от HQ-ViDEO | D Galfimbul 23432581122.18 GB 0 0 1539764018

11:13

17-Окт-18

Зарубежные фильмы 2016-2019 (Новинки зарубежного кино) ·%· Невидимый гость / Contratiempo (2016) BDRip 720p от ExKinoRay | Локализованная версия | D, P | Лицензия Galfimbul 35646450773.32 GB 0 0 1536712208

03:30

12-Сен-18

Зарубежные фильмы 2016-2019 (Новинки зарубежного кино) ·%· Невидимый гость / Contratiempo (2016) Blu-ray 1080p | Rus Transfer | Локализованная версия | Лицензия Galfimbul 4220904393739.31 GB 0 0 1536519623

22:00

9-Сен-18

Зарубежные фильмы 2016-2019 (Новинки зарубежного кино) ·%· Невидимый гость / Contratiempo (2016) BDRip 1080p от HELLYWOOD | Локализованная версия | Лицензия Galfimbul 84950300907.91 GB 0 0 1536234615

14:50

6-Сен-18

Зарубежные фильмы 2016-2019 (Новинки зарубежного кино) ·%· Невидимый гость / Contratiempo (2016) HDRip | КПК | Локализованная версия | Лицензия Galfimbul 425095493405 MB 0 0 1536225611

12:20

6-Сен-18

Зарубежные фильмы 2016-2019 (Новинки зарубежного кино) ·%· Невидимый гость / Contratiempo (2016) BDRip от ExKinoRay | Локализованная версия | Лицензия Galfimbul 15695848261.46 GB 0 0 1536180617

23:50

5-Сен-18

Зарубежные фильмы 2016-2019 (Новинки зарубежного кино) ·%· Невидимый гость / Contratiempo (2016) BDRip-AVC от OlLanDGroup | Лицензия Galfimbul 15660049171.46 GB 0 0 1536162614

18:50

5-Сен-18

Зарубежные фильмы 2016-2019 (Новинки зарубежного кино) ·%· Невидимый гость / Contratiempo (2016) BDRip 1080p от OlLanDGroup | Локализованная версия | Лицензия Galfimbul 89334266558.32 GB 0 0 1536127217

09:00

5-Сен-18

Зарубежные фильмы 2016-2019 (Новинки зарубежного кино) ·%· Невидимый гость / Contratiempo / The Invisible Guest (2016) BDRemux 1080p от ExKinoRay | GER Transfer | iTunes Galfimbul 2059885145119.18 GB 0 0 1530026426

18:20

26-Июн-18

Зарубежные фильмы 2016-2019 (Новинки зарубежного кино) ·%· Невидимый гость / Contratiempo (Ориол Паоло / Oriol Paulo) [2016, Испания, триллер, HDRip] Dub (iTunes) Galfimbul 15645614081.46 GB 0 0 1530010875

14:01

26-Июн-18

Зарубежные фильмы 2016-2019 (Новинки зарубежного кино) ·%· Невидимый гость / Contratiempo (2016) BDRip от MegaPeer | iTunes Galfimbul 783661056747 MB 0 0 1529910023

10:00

25-Июн-18

Зарубежные фильмы 2016-2019 (Новинки зарубежного кино) ·%· Невидимый гость / Contratiempo (2016) BDRip 720p от k.e.n & MegaPeer | D, P, L1 Galfimbul 49965349104.65 GB 0 0 1529899806

07:10

25-Июн-18

Зарубежные фильмы 2016-2019 (Новинки зарубежного кино) ·%· Невидимый гость / Contratiempo (2016) BDRip от MegaPeer | iTunes Galfimbul 15166627841.41 GB 0 0 1529877627

01:00

25-Июн-18

Зарубежные фильмы 2016-2019 (Новинки зарубежного кино) ·%· Невидимый гость / Contratiempo (2016) BDRip 1080p от qqss44 & MegaPeer | iTunes Galfimbul 58791567165.48 GB 0 0 1529877613

01:00

25-Июн-18

Зарубежные фильмы 2016-2019 (Новинки зарубежного кино) ·%· Невидимый гость / Contratiempo (2016) BDRip 720p от ExKinoRay | D, P | iTunes Galfimbul 83005322717.73 GB 0 0 1529870421

23:00

24-Июн-18

Зарубежные фильмы 2016-2019 (Новинки зарубежного кино) ·%· Невидимый гость / Contratiempo (2016) BDRip 1080p от ExKinoRay | D, P | iTunes Galfimbul 1527475520314.23 GB 0 0 1529870411

23:00

24-Июн-18

Зарубежные фильмы до 2016 ·· Невидимый гость / Contratiempo / The Invisible Guest (Ориол Паоло / Oriol Paulo) [2016, Испания, триллер, криминал, детектив, BDRip 1080p] MVO (AlexFilm) + VO (С. Малиновский) + Original (Spa) + Sub (Rus, Eng) Galfimbul 1094289828010.19 GB 0 0 1520723863

02:17

11-Мар-18

Зарубежные фильмы 2016-2019 (Новинки зарубежного кино) ·· Невидимый гость / Contratiempo (Ориол Паоло / Oriol Paulo) [2016, Испания, триллер, BDRip-AVC] MVO + Original Spa + Sub Rus, Eng Galfimbul 23416932822.18 GB 0 0 1512324086

21:01

3-Дек-17

Зарубежные фильмы 2016-2019 (Новинки зарубежного кино) ·· Невидимый гость / Contratiempo (Ориол Паоло / Oriol Paulo) [2016, Испания, триллер, BDRip] MVO + Original Spa + Sub Rus, Eng Galfimbul 22907267542.13 GB 0 0 1512203412

11:30

2-Дек-17

Еще никто не оставлял запись к записи скачать торрент Невидимый гость Contratiempo . Будь первым!

!Обратная связь