Скачать через торрент Кэрол и Тьюсдэй Carole & Tuesday бесплатно Аниме Все серии на русском torrent

Статистика раздачи
Размер:  20.27 GB   |    Зарегистрирован:  1 месяц 5 дней   |    .torrent скачан:  3 раза   |   

Пиры будут получены при скачивании

 

Скачать Кэрол и Тьюсдэй / Carole & Tuesday [TV] [24 из 24] [Без хардсаба] [JAP, Sub] [2019, драма, музыка, WEBRip] [1080p] через torrent

 
Sprinthost
загрузка...
 
Автор Сообщение

Galfimbul ghost

avatar Galfimbul ghost


Кэрол и Тьюсдэй / Carole & Tuesday

Страна: Япония
Год выпуска: 2019
Жанр: драма, музыка
Тип: TV
Продолжительность: 24 эп., по 25 мин.
Выпуск: c 11.04.2019 по 03.10.2019
Режиссер: Ватанабэ Синъитиро
Студия: BONES

Описание: Прошло уже пятьдесят лет с тех пор, как человечество начало эмигрировать на Марс. В это время люди превратились в пассивных потребителей, ведь все их нужды теперь обеспечивал ИИ. Там, на Марсе, в центре города Альба-Сити выживает девушка по имени Кэрол. Она усердно трудится неполный рабочий день в надежде однажды стать музыкантом, но ей чего-то не хватает. В провинциальном марсианском городке Хершел-Сити живёт другая девушка - Тьюсдей. Она из обеспеченной семьи и тоже мечтает стать музыкантом, однако никто не понимает её, ведь музыку теперь пишет ИИ, а не люди. Тьюсдей чувствует себя самым одиноким человеком в мире. Случайная встреча сводит девушек вместе. Они обе хотят петь. Обе мечтают создавать музыку. И вместе у них наконец-то появляется шанс. Двое могут создать лишь крохотную волну, но эта волна в конце концов может перерасти в нечто большее...

Качество: WEBRip
Тип релиза: Без хардсаба
Формат видео: MKV
Наличие линковки: Нет
Релиз/Автор рипа: Erai-raws
Видео: AVC; 1920x1080; ~5110Kbps, 23,976fps; 8 bit
Аудио: JAP, E-AC-3; 48.0 kHz; ~128Kbps (2ch)
Субтитры: Внутренние(отключаемые); Язык субтитров русский, английский, французский, испанский, итальянский, немецкий, португальский, арабский и многие другие; Перевод: Netflix


GeneralUnique ID : 54010094099405558376056032820884024040 (0x28A1F73B8EA8F49354A871FBC92E2AE8)Complete name : D:\Users\SeVeN\Видео\Аниме\[2019]\[NEW]\Carole and Tuesday\[Erai-raws] Carole and Tuesday - 01 [1080p].mkvFormat : MatroskaFormat version : Version 4File size : 854 MiBDuration : 22 min 52 sOverall bit rate mode : VariableOverall bit rate : 5 224 kb/sEncoded date : UTC 2019-08-30 09:41:16Writing application : mkvmerge v34.0.0 (''Sight and Seen'') 64-bitWriting library : libebml v1.3.7 + libmatroska v1.5.0

VideoID : 1Format : AVCFormat/Info : Advanced Video CodecFormat profile : Main@L4Format settings : CABAC / 3 Ref FramesFormat settings, CABAC : YesFormat settings, Reference : 3 framesCodec ID : V_MPEG4/ISO/AVCDuration : 22 min 52 sBit rate mode : VariableBit rate : 5 110 kb/sMaximum bit rate : 7 665 kb/sWidth : 1 920 pixelsHeight : 1 080 pixelsDisplay aspect ratio : 16:9Frame rate mode : ConstantFrame rate : 23.976 (24000/1001) FPSColor space : YUVChroma subsampling : 4:2:0Bit depth : 8 bitsScan type : ProgressiveBits/(Pixel*Frame) : 0.103Stream size : 833 MiB (97%)Writing library : x264 core 148 r2715 7e75228Encoding settings : cabac=1 / ref=3 / deblock=1:0:0 / analyse=0x1:0x111 / me=umh / subme=10 / psy=1 / psy_rd=1.00:0.00 / mixed_ref=1 / me_range=24 / chroma_me=1 / trellis=2 / 8x8dct=0 / cqm=0 / deadzone=21,11 / fast_pskip=1 / chroma_qp_offset=-2 / threads=8 / lookahead_threads=1 / sliced_threads=0 / nr=0 / decimate=1 / interlaced=0 / bluray_compat=0 / stitchable=1 / constrained_intra=0 / bframes=2 / b_pyramid=0 / b_adapt=2 / b_bias=0 / direct=3 / weightb=1 / open_gop=0 / weightp=2 / keyint=48 / keyint_min=25 / scenecut=0 / intra_refresh=0 / rc_lookahead=48 / rc=2pass / mbtree=1 / bitrate=5110 / ratetol=1.0 / qcomp=0.50 / qpmin=6 / qpmax=51 / qpstep=4 / cplxblur=20.0 / qblur=0.5 / vbv_maxrate=7665 / vbv_bufsize=10220 / nal_hrd=vbr / filler=0 / ip_ratio=1.40 / aq=1:1.00Language : JapaneseDefault : YesForced : No

AudioID : 2Format : E-AC-3Format/Info : Enhanced AC-3Commercial name : Dolby Digital PlusCodec ID : A_EAC3Duration : 22 min 52 sBit rate mode : ConstantBit rate : 128 kb/sChannel(s) : 2 channelsChannel layout : L RSampling rate : 48.0 kHzFrame rate : 31.250 FPS (1536 SPF)Compression mode : LossyStream size : 20.9 MiB (2%)Language : JapaneseService kind : Complete MainDefault : YesForced : No

Text #1ID : 3Format : ASSCodec ID : S_TEXT/ASSCodec ID/Info : Advanced Sub Station AlphaDuration : 22 min 41 sBit rate : 68 b/sCount of elements : 224Compression mode : LosslessStream size : 11.4 KiB (0%)Language : EnglishDefault : YesForced : No

Text #2ID : 4Format : ASSCodec ID : S_TEXT/ASSCodec ID/Info : Advanced Sub Station AlphaDuration : 22 min 41 sBit rate : 105 b/sCount of elements : 249Compression mode : LosslessStream size : 17.5 KiB (0%)Language : ArabicDefault : NoForced : No

Text #3ID : 5Format : ASSCodec ID : S_TEXT/ASSCodec ID/Info : Advanced Sub Station AlphaDuration : 22 min 47 sBit rate : 106 b/sCount of elements : 250Compression mode : LosslessStream size : 17.8 KiB (0%)Language : RussianDefault : NoForced : No

Text #4ID : 6Format : ASSCodec ID : S_TEXT/ASSCodec ID/Info : Advanced Sub Station AlphaDuration : 22 min 44 sBit rate : 75 b/sCount of elements : 243Compression mode : LosslessStream size : 12.5 KiB (0%)Language : SpanishDefault : NoForced : No

Text #5ID : 7Format : ASSCodec ID : S_TEXT/ASSCodec ID/Info : Advanced Sub Station AlphaDuration : 22 min 44 sBit rate : 74 b/sCount of elements : 244Compression mode : LosslessStream size : 12.5 KiB (0%)Language : SpanishDefault : NoForced : No

Text #6ID : 8Format : ASSCodec ID : S_TEXT/ASSCodec ID/Info : Advanced Sub Station AlphaDuration : 22 min 41 sBit rate : 78 b/sCount of elements : 242Compression mode : LosslessStream size : 13.0 KiB (0%)Language : PortugueseDefault : NoForced : No

Text #7ID : 9Format : ASSCodec ID : S_TEXT/ASSCodec ID/Info : Advanced Sub Station AlphaDuration : 22 min 44 sBit rate : 73 b/sCount of elements : 242Compression mode : LosslessStream size : 12.3 KiB (0%)Language : PortugueseDefault : NoForced : No

Text #8ID : 10Format : ASSCodec ID : S_TEXT/ASSCodec ID/Info : Advanced Sub Station AlphaDuration : 22 min 41 sBit rate : 76 b/sCount of elements : 239Compression mode : LosslessStream size : 12.6 KiB (0%)Language : GermanDefault : NoForced : No

Text #9ID : 11Format : ASSCodec ID : S_TEXT/ASSCodec ID/Info : Advanced Sub Station AlphaDuration : 22 min 41 sBit rate : 76 b/sCount of elements : 241Compression mode : LosslessStream size : 12.8 KiB (0%)Language : FrenchDefault : NoForced : No

Text #10ID : 12Format : ASSCodec ID : S_TEXT/ASSCodec ID/Info : Advanced Sub Station AlphaDuration : 22 min 41 sBit rate : 76 b/sCount of elements : 241Compression mode : LosslessStream size : 12.7 KiB (0%)Language : ItalianDefault : NoForced : No

Text #11ID : 13Format : ASSCodec ID : S_TEXT/ASSCodec ID/Info : Advanced Sub Station AlphaDuration : 22 min 41 sBit rate : 73 b/sCount of elements : 243Compression mode : LosslessStream size : 12.3 KiB (0%)Language : PolishDefault : NoForced : No

Text #12ID : 14Format : ASSCodec ID : S_TEXT/ASSCodec ID/Info : Advanced Sub Station AlphaDuration : 22 min 44 sBit rate : 70 b/sCount of elements : 231Compression mode : LosslessStream size : 11.7 KiB (0%)Language : DutchDefault : NoForced : No

Text #13ID : 15Format : ASSCodec ID : S_TEXT/ASSCodec ID/Info : Advanced Sub Station AlphaDuration : 22 min 41 sBit rate : 69 b/sCount of elements : 231Compression mode : LosslessStream size : 11.5 KiB (0%)Language : Norwegian BokmalDefault : NoForced : No

Text #14ID : 16Format : ASSCodec ID : S_TEXT/ASSCodec ID/Info : Advanced Sub Station AlphaDuration : 22 min 41 sBit rate : 72 b/sCount of elements : 226Compression mode : LosslessStream size : 12.1 KiB (0%)Language : FinnishDefault : NoForced : No

Text #15ID : 17Format : ASSCodec ID : S_TEXT/ASSCodec ID/Info : Advanced Sub Station AlphaDuration : 22 min 44 sBit rate : 76 b/sCount of elements : 241Compression mode : LosslessStream size : 12.7 KiB (0%)Language : TurkishDefault : NoForced : No

Text #16ID : 18Format : ASSCodec ID : S_TEXT/ASSCodec ID/Info : Advanced Sub Station AlphaDuration : 22 min 41 sBit rate : 71 b/sCount of elements : 227Compression mode : LosslessStream size : 11.9 KiB (0%)Language : SwedishDefault : NoForced : No

Text #17ID : 19Format : ASSCodec ID : S_TEXT/ASSCodec ID/Info : Advanced Sub Station AlphaDuration : 22 min 41 sBit rate : 103 b/sCount of elements : 245Compression mode : LosslessStream size : 17.2 KiB (0%)Language : GreekDefault : NoForced : No

Text #18ID : 20Format : ASSCodec ID : S_TEXT/ASSCodec ID/Info : Advanced Sub Station AlphaDuration : 22 min 44 sBit rate : 98 b/sCount of elements : 248Compression mode : LosslessStream size : 16.5 KiB (0%)Language : HebrewDefault : NoForced : No

Text #19ID : 21Format : ASSCodec ID : S_TEXT/ASSCodec ID/Info : Advanced Sub Station AlphaDuration : 22 min 41 sBit rate : 85 b/sCount of elements : 244Compression mode : LosslessStream size : 14.1 KiB (0%)Language : romDefault : NoForced : No

Text #20ID : 22Format : ASSCodec ID : S_TEXT/ASSCodec ID/Info : Advanced Sub Station AlphaDuration : 22 min 41 sBit rate : 73 b/sCount of elements : 243Compression mode : LosslessStream size : 12.2 KiB (0%)Language : IndonesianDefault : NoForced : No

Text #21ID : 23Format : ASSCodec ID : S_TEXT/ASSCodec ID/Info : Advanced Sub Station AlphaDuration : 22 min 41 sBit rate : 145 b/sCount of elements : 250Compression mode : LosslessStream size : 24.1 KiB (0%)Language : ThaiDefault : NoForced : No

Text #22ID : 24Format : ASSCodec ID : S_TEXT/ASSCodec ID/Info : Advanced Sub Station AlphaDuration : 21 min 17 sBit rate : 91 b/sCount of elements : 251Compression mode : LosslessStream size : 14.2 KiB (0%)Language : KoreanDefault : NoForced : No

Text #23ID : 25Format : ASSCodec ID : S_TEXT/ASSCodec ID/Info : Advanced Sub Station AlphaDuration : 22 min 41 sBit rate : 71 b/sCount of elements : 235Compression mode : LosslessStream size : 11.9 KiB (0%)Language : DanishDefault : NoForced : No

Text #24ID : 26Format : ASSCodec ID : S_TEXT/ASSCodec ID/Info : Advanced Sub Station AlphaDuration : 22 min 42 sBit rate : 129 b/sCount of elements : 339Compression mode : LosslessStream size : 21.6 KiB (0%)Language : JapaneseDefault : NoForced : No

Text #25ID : 27Format : ASSCodec ID : S_TEXT/ASSCodec ID/Info : Advanced Sub Station AlphaDuration : 22 min 44 sBit rate : 78 b/sCount of elements : 251Compression mode : LosslessStream size : 13.1 KiB (0%)Language : ChineseDefault : NoForced : No

Text #26ID : 28Format : ASSCodec ID : S_TEXT/ASSCodec ID/Info : Advanced Sub Station AlphaDuration : 22 min 47 sBit rate : 80 b/sCount of elements : 252Compression mode : LosslessStream size : 13.4 KiB (0%)Language : ChineseDefault : NoForced : No

Text #27ID : 29Format : ASSCodec ID : S_TEXT/ASSCodec ID/Info : Advanced Sub Station AlphaDuration : 22 min 41 sBit rate : 94 b/sCount of elements : 241Compression mode : LosslessStream size : 15.8 KiB (0%)Language : VietnameseDefault : NoForced : No

Text #28ID : 30Format : ASSCodec ID : S_TEXT/ASSCodec ID/Info : Advanced Sub Station AlphaDuration : 22 min 44 sBit rate : 72 b/sCount of elements : 245Compression mode : LosslessStream size : 12.0 KiB (0%)Language : CzechDefault : NoForced : No

Text #29ID : 31Format : ASSCodec ID : S_TEXT/ASSCodec ID/Info : Advanced Sub Station AlphaDuration : 22 min 41 sBit rate : 69 b/sCount of elements : 242Compression mode : LosslessStream size : 11.6 KiB (0%)Language : HungarianDefault : NoForced : No
1.True Colors
2.Born to Run
3.Fire and Rain
4.Video Killed the Radio Star
5.Every Breath You Take
6.Life Is a Carnival
7.Show Me the Way
8.All the Young Dudes
9.Dancing Queen
10.River Deep, Mountain High
11.With or Without You
12.We''ve Only Just Begun
13.Walk This Way
14.The Kids Are Alright
15.God Only Knows
16.A Natural Woman
17.Head over Heels
18.Only Love Can Break Your Heart
19.People Get Ready
20.Immigrant Song
21.It''s Too Late
22.Just Like Heaven
23.Don''t Stop Believin''
24.A Change Is Gonna Come


Внимание! AdBlock блокирует показ скриншотов, все вопросы к разработчикам )))
Трекер:  [ 29-Июн-2020 09:03 ]

  

Скачать .torrent

Размер .torrent файла 53 KB


Размер: 20.27 GB
Хэш (hash) релиза: 372f14458000abf85d0bf77c044626f25832c3b4
Подписка на обновления:

Торренты, похожие на Кэрол и Тьюсдэй Carole & Tuesday скачать торрент

Форум Название Автор Размер S L Добавлен
Аниме | HD Rips ·· Кэрол и Тьюсдэй / Carole & Tuesday [TV] [24 из 24] [Без хардсаба] [JAP, Sub] [2019, драма, музыка, WEBRip] [1080p] Galfimbul ghost 3173406245329.55 GB 0 0 1593323837

08:57

28-Июн-20

dpd RU

Еще никто не оставлял запись к записи скачать торрент Кэрол и Тьюсдэй Carole & Tuesday . Будь первым!

!Обратная связь