Скачать через торрент Доверие The Trust Фильм бесплатно в хорошем качестве torrent

Скачивайте на UnionPeer.org фильмы через торрент без регистрации. Новинки кино в хорошем качестве через торрент. На UnionPeer.org можно скачать через торрент фильмы 2014 и 2015 годов. Самые новые фильмы.

Скачать торрент Доверие The Trust бесплатно через .torrent фильм мультфильм сериал

Статистика раздачи
Размер:  1.45 GB   |    Зарегистрирован:  2 года 6 месяцев   |    .torrent скачан:  151 раз   |   
Раздают:  1  
   
загрузка...
 
Автор Сообщение

Galfimbul

avatar Galfimbul


Доверие / The Trust

Жанр: триллер, криминал
Страна: Великобритания
Год выхода: 2016
Продолжительность: 01:31:43
Перевод: Любительский (многоголосый) [Parovoz Production]
Оригинальная аудиодорожка: английский
Cубтитры: нет
Режиссеры: Алекс Брюэр, Бенджамин Брюэр
В ролях: Николас Кейдж, Элайджа Вуд, Джерри Льюис, Стивен Уильямс, Скай Феррейра, Кевин Уайзман, Лиза Гарднер, Кристи Беран, Джеффри Ховард, Томми Вегас
Описание: Парочка коррумпированных полицейских в отделе улик обнаруживает сейф с нарко-деньгами. Решив похитить тайник, они не подозревают, что вступают в игру за собственные жизни.
Дополнительная информация: Релиз без рекламы.
Семпл: http://multi-up.com/1096745
Качество видео: HDRip
Формат файла: AVI
Видео: 720x400 (16:9), 23,976 fps, XviD 73 ~1784 kbps avg, 0.258 bit/pixel
Аудио #1: Russian: 48 kHz, AC3, 2 ch, ~192.00 kbps avg
Аудио #2: English: 48 kHz, AC3, 2 ch, ~192.00 kbps avg
Общее
Полное имя : D:\скачано\The_Trust.2016.HDRip.avi
Формат : AVI
Формат/Информация : Audio Video Interleave
Размер файла : 1,45 Гбайт
Продолжительность : 1 ч. 31 м.
Общий поток : 2268 Кбит/сек
Программа кодирования : VirtualDubMod 1.5.10.3 | www.virtualdub-fr.org || (build 2550/release)
Библиотека кодирования : VirtualDubMod build 2550/release

Видео
Идентификатор : 0
Формат : MPEG-4 Visual
Профиль формата : Advanced Simple@L5
Параметр BVOP формата : 1
Параметр QPel формата : Нет
Параметр GMC формата : Без точки перехода
Параметр матрицы формата : Выборочная
Идентификатор кодека : XVID
Идентификатор кодека/Подсказка : XviD
Продолжительность : 1 ч. 31 м.
Битрейт : 1784 Кбит/сек
Ширина : 720 пикс.
Высота : 400 пикс.
Соотношение сторон : 16:9
Частота кадров : 23,976 кадр/сек
Цветовое пространство : YUV
Подвыборка цветности : 4:2:0
Битовая глубина : 8 бит
Тип развёртки : Прогрессивная
Метод сжатия : С потерями
Бит/(Пиксели*Кадры) : 0.258
Размер потока : 1,14 Гбайт (79%)
Библиотека кодирования : XviD 73

Аудио #1
Идентификатор : 1
Формат : AC-3
Формат/Информация : Audio Coding 3
Расширение режима : CM (complete main)
Идентификатор кодека : 2000
Продолжительность : 1 ч. 31 м.
Вид битрейта : Постоянный
Битрейт : 192 Кбит/сек
Каналы : 2 канала
Расположение каналов : Front: L R
Частота : 48,0 КГц
Битовая глубина : 16 бит
Метод сжатия : С потерями
Размер потока : 126 Мбайт (8%)
Выравнивание : Разделение по промежуткам

Аудио #2
Идентификатор : 2
Формат : AC-3
Формат/Информация : Audio Coding 3
Расширение режима : CM (complete main)
Идентификатор кодека : 2000
Продолжительность : 1 ч. 31 м.
Вид битрейта : Постоянный
Битрейт : 192 Кбит/сек
Каналы : 2 канала
Расположение каналов : Front: L R
Частота : 48,0 КГц
Битовая глубина : 16 бит
Метод сжатия : С потерями
Размер потока : 126 Мбайт (8%)
Выравнивание : Разделение по промежуткам


Трекер:  [ 09-Апр-2016 20:30 ]

  

Скачать .torrent

Размер .torrent файла 15 KB


Размер: 1.45 GB
Хэш (hash) релиза: 046517b2cb7f8f79d1c73ebfb6abe80799a63c5f
Подписка на обновления:

Торренты, похожие на Доверие The Trust скачать торрент

Форум Название Автор Размер S L Добавлен
Зарубежные фильмы 2016-2018 (Новинки зарубежного кино) ·· Доверие / The Trust (Алекс Брюэр / Alex Brewer, Бенжамин Брюэр / Benjamin Brewer) [2016, Великобритания, Триллер, криминал, HDRip] DVO Galfimbul 785700864749 MB 0 0 1461670022

14:27

26-Апр-16

Зарубежные фильмы 2016-2018 (Новинки зарубежного кино) ·· Доверие / The Trust (Алекс Брюэр / Alex Brewer, Бенжамин Брюэр / Benjamin Brewer) [2016, Великобритания, Триллер, криминал, BDRemux 1080p] Galfimbul 2507827108223.36 GB 0 0 1460290230

15:10

10-Апр-16

Зарубежные фильмы 2016-2018 (Новинки зарубежного кино) ·· Доверие / The Trust (Алекс Брюэр / Alex Brewer, Бенжамин Брюэр / Benjamin Brewer) [2016, Великобритания, Триллер, криминал, BDRip 1080p] Galfimbul 90797379648.46 GB 0 0 1460274798

10:53

10-Апр-16

Зарубежные фильмы 2016-2018 (Новинки зарубежного кино) ·· Доверие / The Trust (Alex Brewer, Бенжамин Брюэр) [2016, триллер, криминал, BDRip 720p] Galfimbul 61503560065.73 GB 0 0 1460274776

10:52

10-Апр-16

Зарубежные фильмы 2016-2018 (Новинки зарубежного кино) ·· Доверие / The Trust (Алекс Брюэр / Alex Brewer, Бенжамин Брюэр / Benjamin Brewer) [2016, Великобритания, Триллер, криминал, BDRip] DVO Galfimbul 15625134081.46 GB 0 0 1460234420

23:40

9-Апр-16

Зарубежные фильмы 2016-2018 (Новинки зарубежного кино) ·· Доверие / The Trust (Alex Brewer, Бенжамин Брюэр) [2016, триллер, криминал, HDRip] Galfimbul 15605760001.45 GB 0 0 1460206066

15:47

9-Апр-16

Документальные фильмы и телепередачи ·· Билли Джоэл. Дело доверия: Окно в Россию / Billy Joel. A Matter of Trust: The Bridge to Russia (Джим Браун / Jim Brown) [2014, Документальный, музыка, рок, HDTVRip] MVO (1 канал) Galfimbul 11729489921.09 GB 0 0 1471183605

17:06

14-Авг-16

Документальные фильмы и телепередачи ·· Билли Джоэл. Дело доверия. Мост в Россию / Окно в Россию / Billy Joel: A Matter of Trust. The Bridge to Russia. A Documentary Film (Джим Браун / Jim Brown) [2013, документальный, музыка, DVB] Galfimbul 18211881881.7 GB 0 0 1420637681

16:34

7-Янв-15

Еще никто не оставлял запись к записи скачать торрент Доверие The Trust . Будь первым!

!Обратная связь