Скачать через торрент Сплит Split Фильм бесплатно в хорошем качестве torrent

Скачивайте на UnionPeer.org фильмы через торрент без регистрации. Новинки кино в хорошем качестве через торрент. На UnionPeer.org можно скачать через торрент фильмы 2014 и 2015 годов. Самые новые фильмы.

Скачать торрент Сплит Split бесплатно через .torrent фильм мультфильм сериал

Статистика раздачи
Размер:  1.46 GB   |    Зарегистрирован:  6 лет 10 месяцев   |    .torrent скачан:  577 раз   |   
Раздают:  1  
 

Скачать Сплит / Split (М. Найт Шьямалан / M. Night Shyamalan) [2016, США, ужасы, триллер, HDRip] MVO (Paradox & Omskbird) + Original Eng через torrent

 
 
Автор Сообщение

Galfimbul

avatar Galfimbul


Сплит / Split

Страна: США
Жанр: ужасы, триллер
Год выпуска: 2016
Продолжительность: 01:57:08

Перевод: Любительский (многоголосый закадровый) Paradox & Omskbird
Cубтитры: нет
Оригинальная аудиодорожка: английский

Режиссер: М. Найт Шьямалан / M. Night Shyamalan

В ролях: Джеймс МакЭвой, Бетти Бакли, Иззи Коффи, Накия Диллард, Дэнн Финк, Кэш Гойнс, Розмари Ховард, Нил Хафф

Описание: Кевин — человек, в котором живет не менее двадцати трех личностей, вынужден похитить трех девушек подросткового возраста. Тем временем, пока они находятся в заточении, самая главная личность Кевина — Чудовище — материализуется
Сэмпл: http://multi-up.com/1149010

Качество видео: HDRip (исходник не известен)
Формат видео: AVI

Видео: 720x304 (2.37:1), 23.976 fps, XviD build 73 ~1327 kbps avg, 0.25 bit/pixel
Аудио: 48 kHz, AC3 Dolby Digital, 2/0 (L,R) ch, ~192 kbps
Аудио 2: 48 kHz, AC3 Dolby Digital, 2/0 (L,R) ch, ~256 kbps
Format : AVI
Format/Info : Audio Video Interleave
File size : 1.46 GiB
Duration : 1 h 57 min
Overall bit rate : 1 787 kb/s

Video
ID : 0
Format : MPEG-4 Visual
Format profile : Advanced Simple@L5
Format settings, BVOP : 1
Format settings, QPel : No
Format settings, GMC : No warppoints
Format settings, Matrix : Custom
Codec ID : XVID
Codec ID/Hint : XviD
Duration : 1 h 57 min
Bit rate : 1 328 kb/s
Width : 720 pixels
Height : 304 pixels
Display aspect ratio : 2.35:1
Frame rate : 23.976 (24000/1001) FPS
Color space : YUV
Chroma subsampling : 4:2:0
Bit depth : 8 bits
Scan type : Progressive
Compression mode : Lossy
Bits/(Pixel*Frame) : 0.253
Stream size : 1.09 GiB (74%)
Writing library : XviD 73

Audio #1
ID : 1
Format : AC-3
Format/Info : Audio Coding 3
Mode extension : CM (complete main)
Format settings, Endianness : Big
Codec ID : 2000
Duration : 1 h 57 min
Bit rate mode : Constant
Bit rate : 192 kb/s
Channel(s) : 2 channels
Channel positions : Front: L R
Sampling rate : 48.0 kHz
Frame rate : 31.250 FPS (1536 spf)
Compression mode : Lossy
Stream size : 161 MiB (11%)
Alignment : Aligned on interleaves
Interleave, duration : 64 ms (1.53 video frames)
Interleave, preload duration : 192 ms

Audio #2
ID : 2
Format : AC-3
Format/Info : Audio Coding 3
Mode extension : CM (complete main)
Format settings, Endianness : Big
Codec ID : 2000
Duration : 1 h 57 min
Bit rate mode : Constant
Bit rate : 256 kb/s
Channel(s) : 2 channels
Channel positions : Front: L R
Sampling rate : 48.0 kHz
Frame rate : 31.250 FPS (1536 spf)
Compression mode : Lossy
Stream size : 214 MiB (14%)
Alignment : Aligned on interleaves
Interleave, duration : 64 ms (1.53 video frames)
Interleave, preload duration : 192 ms


Внимание! AdBlock блокирует показ скриншотов, все вопросы к разработчикам )))
Трекер:  [ 07-Апр-2017 16:00 ]

  

Скачать .torrent

Размер .torrent файла 15 KB


Размер: 1.46 GB
Хэш (hash) релиза: 544ce9f6ac5a6a5105e5bcebe49caea331c4bc9c
Подписка на обновления:

Торренты, похожие на Сплит Split скачать торрент

Форум Название Автор Размер S L Добавлен
Азиатские фильмы ·· Сплит / Split / Seupeulrit (Чхве Гук-хи / Choi Gook-hee) [2016, Южная Корея, драма, экшн, спорт, криминал, HDRip] + Sub Rus Galfimbul 15684587521.46 GB 0 0 1506272557

20:02

24-Сен-17

Зарубежные фильмы до 2016 ·· Сплит / Split (М. Найт Шьямалан / M. Night Shyamalan) [2016, США, Ужасы, триллер, DVD5 (сжатый)] исх. R2, Dub + Sub Rus + Original Eng Galfimbul 46799953924.36 GB 0 0 1498644384

13:06

28-Июн-17

Трейлеры и дополнительные материалы ·· Сплит / Split (М. Найт Шьямалан / M. Night Shyamalan) [2016, Ужасы | Триллер, BDRip 720p] дополнительные материалы Galfimbul 14936425251.39 GB 0 0 1495370389

15:39

21-Май-17

Зарубежные фильмы до 2016 ·· Сплит / Split (М. Найт Шьямалан / M. Night Shyamalan) [2016, США, Триллер, DVD9] Dub + Sub Rus + Original Eng Galfimbul 83929421827.82 GB 0 0 1494869817

20:36

15-Май-17

Зарубежные фильмы 2016-2019 (Новинки зарубежного кино) ·· Сплит / Split (М. Найт Шьямалан) [2016, Ужасы, триллер, Blu-Ray EUR] Лицензия Galfimbul 4883614724245.48 GB 0 0 1494573476

10:17

12-Май-17

Зарубежные фильмы 2016-2019 (Новинки зарубежного кино) ·· Сплит / Split (М. Найт Шьямалан / M. Night Shyamalan) [2016, США, ужасы, триллер, BDRip-AVC] Dub + Original + Sub (rus, eng) Galfimbul 22950664242.14 GB 0 0 1494449496

23:51

10-Май-17

Зарубежные фильмы 2016-2019 (Новинки зарубежного кино) ·· Сплит / Split (М. Найт Шьямалан / M. Night Shyamalan) [2016, США, ужасы, триллер, BDRip] Dub (iTunes) + Original Eng Galfimbul 22052147202.05 GB 0 0 1494448448

23:34

10-Май-17

Зарубежные фильмы 2016-2019 (Новинки зарубежного кино) ·· Сплит / Split (М. Найт Шьямалан / M. Night Shyamalan) [2016, США, ужасы, триллер, BDRip-AVC] MVO (Paradox & Omskbird) + Original + Sub (eng) Galfimbul 21263170781.98 GB 0 0 1492677485

11:38

20-Апр-17

Зарубежные фильмы до 2016 ·· Сплит / Split (М. Найт Шьямалан / M. Night Shyamalan) [2016, США, Ужасы, триллер, BDRip 720p] MVO (Paradox&Omskbird) + Sub Eng + Original Eng Galfimbul 65277981166.08 GB 0 0 1492023021

21:50

12-Апр-17

Зарубежные фильмы 2016-2019 (Новинки зарубежного кино) ·· Сплит / Split (М. Найт Шьямалан) [2016, Ужасы, триллер, WEBRip 1080p] Звук с TS Galfimbul 44570162264.15 GB 0 0 1490442195

14:43

25-Мар-17

Зарубежные фильмы 2016-2019 (Новинки зарубежного кино) ·· Сплит / Split (М. Найт Шьямалан) [2016, Ужасы, триллер, WEBRip] Звук с TS Galfimbul 14673592321.37 GB 0 0 1490430487

11:28

25-Мар-17

Зарубежные фильмы 2016-2019 (Новинки зарубежного кино) ·· Сплит / Split (М. Найт Шьямалан) [2016, Ужасы, триллер, TS] [КОЛОБОК] Galfimbul 15640596481.46 GB 0 0 1485559777

02:29

28-Янв-17

Зарубежные фильмы 2016-2019 (Новинки зарубежного кино) ·· Сплит / Расщепленный / Split (М. Найт Шьямалан / M. Night Shyamalan) [2016, США, ужасы, триллер, BDRip] AVO (Юрий Сербин) Galfimbul 22215884802.07 GB 0 0 1517239828

18:30

29-Янв-18

Еще никто не оставлял запись к записи скачать торрент Сплит Split . Будь первым!

!Обратная связь