Скачать через торрент Сплит Split Фильм бесплатно в хорошем качестве torrent

Скачивайте на UnionPeer.org фильмы через торрент без регистрации. Новинки кино в хорошем качестве через торрент. На UnionPeer.org можно скачать через торрент фильмы 2014 и 2015 годов. Самые новые фильмы.

Скачать торрент Сплит Split бесплатно через .torrent фильм мультфильм сериал

Статистика раздачи
Размер:  6.08 GB   |    Зарегистрирован:  6 лет 10 месяцев   |    .torrent скачан:  358 раз   |   
Раздают:  1  
 

Скачать Сплит / Split (М. Найт Шьямалан / M. Night Shyamalan) [2016, США, Ужасы, триллер, BDRip 720p] MVO (Paradox&Omskbird) + Sub Eng + Original Eng через torrent

 
 
Автор Сообщение

Galfimbul

avatar Galfimbul


Сплит / Split

Страна: США
Студия: Blinding Edge Pictures, Blumhouse Productions
Жанр: Ужасы, триллер
Год выпуска: 2016
Продолжительность: 01:57:07

Перевод: Любительский (многоголосый закадровый) Paradox&Omskbird
Cубтитры: английские
Оригинальная аудиодорожка: английский

Режиссер: М. Найт Шьямалан / M. Night Shyamalan

В ролях: Джеймс МакЭвой, Бетти Бакли, Иззи Коффи, Накия Диллард, Дэнн Финк, Кэш Гойнс, Розмари Ховард, Нил Хафф

Описание: Cредь бела дня с многолюдной парковки незнакомец похищает трёх школьниц. Они приходят в себя в закрытом помещении, а в душе владельца таятся 23 лика страха. Сменяя друг друга, личности ведут обычную для них жизнь — работают и ходят к психотерапевту, периодически напоминая пленницам, что они дожидаются 24-ю личность, которая скоро явит себя миру.



Тип релиза: BDRip 720p
Контейнер: MKV

Видео: MPEG-4 AVC, 6600 Кбит/с, 1280x536, 23,976 fps
Аудио: Rus, AC3, 192 kb/s (2 ch), 48 kHz
Аудио 2: Eng, AC3, 640 kb/s (6 ch), 48 kHz
Формат субтитров: softsub (SRT)
x264 [info]: frame I:1175 Avg QP:11.58 size:144080
x264 [info]: frame P:31796 Avg QP:12.99 size: 61230
x264 [info]: frame B:135529 Avg QP:13.89 size: 27143

Format : Matroska
Format version : Version 4 / Version 2
File size : 6.08 GiB
Duration : 1 h 57 min
Overall bit rate : 7 431 kb/s
Movie name : Сплит. (Tonik)
Encoded date : UTC 2017-04-08 08:08:43
Writing application : mkvmerge v7.1.0 ('Good Love') 64bit built on Jul 27 2014 13:06:55
Writing library : libebml v1.3.0 + libmatroska v1.4.1

Video
ID : 1
Format : AVC
Format/Info : Advanced Video Codec
Format profile : [email protected]
Format settings, CABAC : Yes
Format settings, ReFrames : 12 frames
Codec ID : V_MPEG4/ISO/AVC
Duration : 1 h 57 min
Bit rate : 6 600 kb/s
Width : 1 280 pixels
Height : 536 pixels
Display aspect ratio : 2.40:1
Frame rate mode : Constant
Frame rate : 23.976 (24000/1001) FPS
Color space : YUV
Chroma subsampling : 4:2:0
Bit depth : 8 bits
Scan type : Progressive
Bits/(Pixel*Frame) : 0.401
Stream size : 5.40 GiB (89%)
Writing library : x264 core 148 r2744 b97ae06
Encoding settings : cabac=1 / ref=12 / deblock=1:-3:-3 / analyse=0x3:0x133 / me=umh / subme=11 / psy=1 / psy_rd=1.05:0.00 / mixed_ref=1 / me_range=32 / chroma_me=1 / trellis=2 / 8x8dct=1 / cqm=0 / deadzone=21,11 / fast_pskip=0 / chroma_qp_offset=-2 / threads=12 / lookahead_threads=2 / sliced_threads=0 / slices=4 / nr=0 / decimate=0 / interlaced=0 / bluray_compat=0 / constrained_intra=0 / bframes=9 / b_pyramid=2 / b_adapt=2 / b_bias=0 / direct=3 / weightb=1 / open_gop=0 / weightp=2 / keyint=250 / keyint_min=23 / scenecut=40 / intra_refresh=0 / rc_lookahead=40 / rc=2pass / mbtree=0 / bitrate=6600 / ratetol=1.0 / qcomp=0.60 / qpmin=0 / qpmax=69 / qpstep=4 / cplxblur=20.0 / qblur=0.5 / vbv_maxrate=50000 / vbv_bufsize=62500 / nal_hrd=none / filler=0 / ip_ratio=1.20 / pb_ratio=1.20 / aq=3:0.78 / zones=1,1129,b=1.7/44287,51112,b=1.3/71299,77915,b=1.3/87370,87655,b=1.3/94156,94758,b=1.3/101019,113062,b=1.22/117077,117691,b=1.3/121248,125122,b=1.3/129870,133097,b=1.3/141940,153393,b=1.3/155010,155191,b=1.2
Language : English
Default : Yes
Forced : No
Color range : Limited
Matrix coefficients : BT.709

Audio #1
ID : 2
Format : AC-3
Format/Info : Audio Coding 3
Format settings, Endianness : Big
Codec ID : A_AC3
Duration : 1 h 57 min
Bit rate mode : Constant
Bit rate : 192 kb/s
Channel(s) : 2 channels
Channel positions : Front: L R
Sampling rate : 48.0 kHz
Frame rate : 31.250 FPS (1536 spf)
Bit depth : 16 bits
Compression mode : Lossy
Stream size : 161 MiB (3%)
Title : Paradox&Omskbird
Language : Russian
Service kind : Complete Main
Default : Yes
Forced : No

Audio #2
ID : 3
Format : AC-3
Format/Info : Audio Coding 3
Format settings, Endianness : Big
Codec ID : A_AC3
Duration : 1 h 57 min
Bit rate mode : Constant
Bit rate : 640 kb/s
Channel(s) : 6 channels
Channel positions : Front: L C R, Side: L R, LFE
Sampling rate : 48.0 kHz
Frame rate : 31.250 FPS (1536 spf)
Bit depth : 16 bits
Compression mode : Lossy
Stream size : 536 MiB (9%)
Language : English
Service kind : Complete Main
Default : No
Forced : No

Text #1
ID : 4
Format : UTF-8
Codec ID : S_TEXT/UTF8
Codec ID/Info : UTF-8 Plain Text
Duration : 1 h 51 min
Bit rate : 44 b/s
Count of elements : 1273
Stream size : 36.7 KiB (0%)
Language : English
Default : No
Forced : No

Text #2
ID : 5
Format : UTF-8
Codec ID : S_TEXT/UTF8
Codec ID/Info : UTF-8 Plain Text
Duration : 1 h 51 min
Bit rate : 49 b/s
Count of elements : 1441
Stream size : 40.3 KiB (0%)
Title : SDH
Language : English
Default : No
Forced : No

Menu
00:00:00.000 : en:00:00:00.000
00:06:08.451 : en:00:06:08.451
00:14:19.025 : en:00:14:19.025
00:20:49.373 : en:00:20:49.373
00:24:14.536 : en:00:24:14.536
00:28:37.049 : en:00:28:37.049
00:35:47.979 : en:00:35:47.979
00:42:35.386 : en:00:42:35.386
00:49:06.068 : en:00:49:06.068
00:54:09.413 : en:00:54:09.413
01:00:24.496 : en:01:00:24.496
01:06:22.562 : en:01:06:22.562
01:12:31.222 : en:01:12:31.222
01:19:35.771 : en:01:19:35.771
01:25:25.829 : en:01:25:25.829
01:29:16.560 : en:01:29:16.560
01:34:08.226 : en:01:34:08.226
01:40:45.998 : en:01:40:45.998
01:47:40.287 : en:01:47:40.287
01:52:26.740 : en:01:52:26.740


Внимание! AdBlock блокирует показ скриншотов, все вопросы к разработчикам )))
Трекер:  [ 12-Апр-2017 21:00 ]

  

Скачать .torrent

Размер .torrent файла 15 KB


Размер: 6.08 GB
Хэш (hash) релиза: 89894c4bb8a48dbd307bdbacbb4f5c7413647e74
Подписка на обновления:

Торренты, похожие на Сплит Split скачать торрент

Форум Название Автор Размер S L Добавлен
Азиатские фильмы ·· Сплит / Split / Seupeulrit (Чхве Гук-хи / Choi Gook-hee) [2016, Южная Корея, драма, экшн, спорт, криминал, HDRip] + Sub Rus Galfimbul 15684587521.46 GB 0 0 1506272557

20:02

24-Сен-17

Зарубежные фильмы до 2016 ·· Сплит / Split (М. Найт Шьямалан / M. Night Shyamalan) [2016, США, Ужасы, триллер, DVD5 (сжатый)] исх. R2, Dub + Sub Rus + Original Eng Galfimbul 46799953924.36 GB 0 0 1498644384

13:06

28-Июн-17

Трейлеры и дополнительные материалы ·· Сплит / Split (М. Найт Шьямалан / M. Night Shyamalan) [2016, Ужасы | Триллер, BDRip 720p] дополнительные материалы Galfimbul 14936425251.39 GB 0 0 1495370389

15:39

21-Май-17

Зарубежные фильмы до 2016 ·· Сплит / Split (М. Найт Шьямалан / M. Night Shyamalan) [2016, США, Триллер, DVD9] Dub + Sub Rus + Original Eng Galfimbul 83929421827.82 GB 0 0 1494869817

20:36

15-Май-17

Зарубежные фильмы 2016-2019 (Новинки зарубежного кино) ·· Сплит / Split (М. Найт Шьямалан) [2016, Ужасы, триллер, Blu-Ray EUR] Лицензия Galfimbul 4883614724245.48 GB 0 0 1494573476

10:17

12-Май-17

Зарубежные фильмы 2016-2019 (Новинки зарубежного кино) ·· Сплит / Split (М. Найт Шьямалан / M. Night Shyamalan) [2016, США, ужасы, триллер, BDRip-AVC] Dub + Original + Sub (rus, eng) Galfimbul 22950664242.14 GB 0 0 1494449496

23:51

10-Май-17

Зарубежные фильмы 2016-2019 (Новинки зарубежного кино) ·· Сплит / Split (М. Найт Шьямалан / M. Night Shyamalan) [2016, США, ужасы, триллер, BDRip] Dub (iTunes) + Original Eng Galfimbul 22052147202.05 GB 0 0 1494448448

23:34

10-Май-17

Зарубежные фильмы 2016-2019 (Новинки зарубежного кино) ·· Сплит / Split (М. Найт Шьямалан / M. Night Shyamalan) [2016, США, ужасы, триллер, BDRip-AVC] MVO (Paradox & Omskbird) + Original + Sub (eng) Galfimbul 21263170781.98 GB 0 0 1492677485

11:38

20-Апр-17

Зарубежные фильмы 2016-2019 (Новинки зарубежного кино) ·· Сплит / Split (М. Найт Шьямалан / M. Night Shyamalan) [2016, США, ужасы, триллер, HDRip] MVO (Paradox & Omskbird) + Original Eng Galfimbul 15694182781.46 GB 0 0 1491573635

17:00

7-Апр-17

Зарубежные фильмы 2016-2019 (Новинки зарубежного кино) ·· Сплит / Split (М. Найт Шьямалан) [2016, Ужасы, триллер, WEBRip 1080p] Звук с TS Galfimbul 44570162264.15 GB 0 0 1490442195

14:43

25-Мар-17

Зарубежные фильмы 2016-2019 (Новинки зарубежного кино) ·· Сплит / Split (М. Найт Шьямалан) [2016, Ужасы, триллер, WEBRip] Звук с TS Galfimbul 14673592321.37 GB 0 0 1490430487

11:28

25-Мар-17

Зарубежные фильмы 2016-2019 (Новинки зарубежного кино) ·· Сплит / Split (М. Найт Шьямалан) [2016, Ужасы, триллер, TS] [КОЛОБОК] Galfimbul 15640596481.46 GB 0 0 1485559777

02:29

28-Янв-17

Зарубежные фильмы 2016-2019 (Новинки зарубежного кино) ·· Сплит / Расщепленный / Split (М. Найт Шьямалан / M. Night Shyamalan) [2016, США, ужасы, триллер, BDRip] AVO (Юрий Сербин) Galfimbul 22215884802.07 GB 0 0 1517239828

18:30

29-Янв-18

Еще никто не оставлял запись к записи скачать торрент Сплит Split . Будь первым!

!Обратная связь