Скачать через торрент [VIDEO] Бегущий по лезвию Blade Runner бесплатно русская версия torrent активатор

Статистика раздачи
Размер:  2.43 GB   |    Зарегистрирован:  3 месяца 2 дня   |    .torrent скачан:  22 раза   |   
Раздают:  1  
   
загрузка...
 
Автор Сообщение

Galfimbul

avatar Galfimbul


Бегущий по лезвию / Blade Runner
[Финальная версия / Final Cut]

Год выпуска: 1982
Страна: США, Гонконг
Жанр: драма, триллер, фантастика
Продолжительность: 01:57:37
Перевод №1: русский Профессиональный (полное дублирование) Blu-ray CEE
Перевод №2: русский Профессиональный (двухголосый, закадровый) Tycoon
Перевод №3: русский Профессиональный (многоголосый, закадровый) Киномания
Перевод №4: русский Авторский (одноголосый, закадровый) Ю.Живов
Перевод №5: русский Авторский (одноголосый, закадровый) А.Гаврилов
Перевод №6: русский Авторский (одноголосый, закадровый) Д.Есарев
Перевод №7: русский Авторский (одноголосый, закадровый) А.Матвеев
Перевод №8: русский Авторский (одноголосый, закадровый) П.Карцев
Перевод №9: русский Любительский (одноголосый, закадровый) А. Попов
Перевод №10: русский Любительский (одноголосый, закадровый) К. Поздняков
Перевод №11: русский Любительский (одноголосый, закадровый) В. Завгородний
Оригинальная дорожка: Есть
Субтитры: русские (Full Blu-ray CEE), (Tycoon), английские (Full), (SDH)
Режиссер: Ридли Скотт / Ridley Scott
В ролях: Харрисон Форд, Рутгер Хауэр, Шон Янг, Эдвард Джеймс Олмос, М. Эммет Уолш, Дэрил Ханна, Уильям Сэндерсон, Брайон Джеймс Дин и другие .
Описание: Отставной детектив Рик Декард вновь восстановлен в полиции Лос-Анджелеса для поиска возглавляемой Роем Батти группы киборгов, совершившей побег из космической колонии на Землю.
[i]Релиз группы

Качество: BDRip / рип с Blu-ray disc 1080p [The Final Cut]
Формат: MP4
Видео кодек: H.264
Аудио кодек: AAC
Видео: 960x400 AR:2.40 1400 kbps 23.976 fps
Аудио №1: [Russian] 2ch 48 kHz 128 kbps - [Dub] Профессиональный (полное дублирование) Blu-ray CEE
Аудио №2: [Russian] 2ch 48 kHz 128 kbps - [DVO] Профессиональный (двухголосый, закадровый) Tycoon
Аудио №3: [Russian] 2ch 48 kHz 128 kbps - [MVO] Любительский (многоголосый, закадровый) Киномания
Аудио №4: [Russian] 2ch 48 kHz 128 kbps - [VO] Авторский (одноголосый, закадровый) Ю.Живов
Аудио №5: [Russian] 2ch 48 kHz 128 kbps - [VO] Авторский (одноголосый, закадровый) А.Гаврилов
Аудио №6: [Russian] 2ch 48 kHz 128 kbps - [VO] Авторский (одноголосый, закадровый) Д.Есарев
Аудио №7: [Russian] 2ch 48 kHz 128 kbps - [VO] Авторский (одноголосый, закадровый) А.Матвеев
Аудио №8: [Russian] 2ch 48 kHz 128 kbps - [VO] Авторский (одноголосый, закадровый) П.Карцев
Аудио №9: [Russian] 2ch 48 kHz 128 kbps - [VO] Любительский (одноголосый, закадровый) А. Попов
Аудио №10: [Russian] 2ch 48 kHz 128 kbps - [VO] Любительский (одноголосый, закадровый) К. Поздняков
Аудио №11: [Russian] 2ch 48 kHz 128 kbps - [VO] Любительский (одноголосый, закадровый) В. Завгородний
Аудио №12: [English] 2ch 48 kHz 128 kbps - Original
avs [info]: 960x400p 1:1 @ 24000/1001 fps (cfr)
x264 [info]: using SAR=1/1
x264 [info]: using cpu capabilities: MMX2 SSE2Fast SSSE3 SSE4.2 AVX FMA3 BMI2 AVX2
x264 [info]: profile High, level 4.1

x264 [info]: frame I:1161 Avg QP:14.75 size: 43654
x264 [info]: frame P:36812 Avg QP:18.44 size: 14889
x264 [info]: frame B:131222 Avg QP:20.58 size: 4832
x264 [info]: consecutive B-frames: 2.0% 2.4% 7.3% 22.3% 20.3% 33.1% 6.2% 3.9% 2.4%
x264 [info]: mb I I16..4: 18.7% 58.9% 22.4%
x264 [info]: mb P I16..4: 2.1% 8.2% 1.1% P16..4: 34.8% 36.9% 9.9% 0.0% 0.0% skip: 7.1%
x264 [info]: mb B I16..4: 0.1% 0.7% 0.1% B16..8: 32.8% 16.7% 2.6% direct: 5.2% skip:41.8% L0:46.5% L1:43.7% BI: 9.8%
x264 [info]: 8x8 transform intra:70.7% inter:60.3%
x264 [info]: direct mvs spatial:98.0% temporal:2.0%
x264 [info]: coded y,uvDC,uvAC intra: 78.1% 81.5% 59.3% inter: 22.4% 20.6% 6.4%
x264 [info]: i16 v,h,dc,p: 32% 13% 10% 45%
x264 [info]: i8 v,h,dc,ddl,ddr,vr,hd,vl,hu: 8% 6% 8% 10% 14% 14% 13% 13% 14%
x264 [info]: i4 v,h,dc,ddl,ddr,vr,hd,vl,hu: 12% 9% 11% 8% 13% 12% 12% 10% 13%
x264 [info]: i8c dc,h,v,p: 44% 24% 18% 15%
x264 [info]: Weighted P-Frames: Y:18.6% UV:12.1%
x264 [info]: ref P L0: 42.3% 7.8% 18.8% 7.6% 6.5% 4.7% 4.4% 2.5% 2.5% 2.2% 0.5% 0.0%
x264 [info]: ref B L0: 72.2% 11.1% 5.8% 3.3% 2.4% 2.1% 1.7% 0.9% 0.4%
x264 [info]: ref B L1: 94.8% 5.2%
x264 [info]: kb/s:1397.57

encoded 169195 frames, 17.83 fps, 1397.57 kb/s
GeneralComplete name : K:\Torrents\Blade Runner.[Final Cut].1982.BDRip.x264.960x.rip by Frost O.S.mp4Format : MPEG-4Format profile : 3GPP Release 6 GeneralCodec ID : 3gg6 (isom/3gg6/mp42)File size : 2.43 GiBDuration : 1 h 57 minOverall bit rate mode : VariableOverall bit rate : 2 956 kb/sEncoded date : UTC 2018-07-14 07:54:18Tagged date : UTC 2018-07-14 07:54:18

VideoID : 1Format : AVCFormat/Info : Advanced Video CodecFormat profile : High@L4.1Format settings : CABAC / 10 Ref FramesFormat settings, CABAC : YesFormat settings, RefFrames : 10 framesCodec ID : avc1Codec ID/Info : Advanced Video CodingDuration : 1 h 57 minBit rate : 1 400 kb/sMaximum bit rate : 6 016 kb/sWidth : 960 pixelsHeight : 400 pixelsDisplay aspect ratio : 2.40:1Frame rate mode : ConstantFrame rate : 23.976 (24000/1001) FPSColor space : YUVChroma subsampling : 4:2:0Bit depth : 8 bitsScan type : ProgressiveBits/(Pixel*Frame) : 0.152Stream size : 1.15 GiB (47%)Writing library : x264 core 152 r2851 ba24899Encoding settings : cabac=1 / ref=10 / deblock=1:-2:-1 / analyse=0x3:0x113 / me=umh / subme=11 / psy=1 / psy_rd=1.00:0.00 / mixed_ref=1 / me_range=32 / chroma_me=1 / trellis=2 / 8x8dct=1 / cqm=0 / deadzone=21,11 / fast_pskip=0 / chroma_qp_offset=-2 / threads=6 / lookahead_threads=1 / sliced_threads=0 / nr=0 / decimate=0 / interlaced=0 / bluray_compat=0 / constrained_intra=0 / bframes=8 / b_pyramid=2 / b_adapt=2 / b_bias=0 / direct=3 / weightb=1 / open_gop=0 / weightp=2 / keyint=250 / keyint_min=23 / scenecut=40 / intra_refresh=0 / rc=2pass / mbtree=0 / bitrate=1400 / ratetol=1.0 / qcomp=0.70 / qpmin=0 / qpmax=69 / qpstep=4 / cplxblur=20.0 / qblur=0.5 / ip_ratio=1.40 / pb_ratio=1.30 / aq=1:0.70Encoded date : UTC 2018-07-13 17:04:28Tagged date : UTC 2018-07-14 07:54:58Color range : LimitedColor primaries : BT.709Transfer characteristics : BT.709Matrix coefficients : BT.709

Audio #1ID : 2Format : AACFormat/Info : Advanced Audio CodecFormat profile : LCCodec ID : mp4a-40-2Duration : 1 h 57 minBit rate mode : VariableBit rate : 128 kb/sMaximum bit rate : 135 kb/sChannel(s) : 2 channelsChannel positions : Front: L RSampling rate : 48.0 kHzFrame rate : 46.875 FPS (1024 SPF)Compression mode : LossyStream size : 108 MiB (4%)Title : Russian / Dub, Blu-ray CEEEncoded date : UTC 2018-07-13 19:37:08Tagged date : UTC 2018-07-14 07:54:58

Audio #2ID : 3Format : AACFormat/Info : Advanced Audio CodecFormat profile : LCCodec ID : mp4a-40-2Duration : 1 h 57 minBit rate mode : VariableBit rate : 128 kb/sMaximum bit rate : 137 kb/sChannel(s) : 2 channelsChannel positions : Front: L RSampling rate : 48.0 kHzFrame rate : 46.875 FPS (1024 SPF)Compression mode : LossyStream size : 108 MiB (4%)Title : Russian / DVO, TycoonEncoded date : UTC 2018-07-13 19:44:59Tagged date : UTC 2018-07-14 07:54:58

Audio #3ID : 4Format : AACFormat/Info : Advanced Audio CodecFormat profile : LCCodec ID : mp4a-40-2Duration : 1 h 57 minBit rate mode : VariableBit rate : 128 kb/sMaximum bit rate : 137 kb/sChannel(s) : 2 channelsChannel positions : Front: L RSampling rate : 48.0 kHzFrame rate : 46.875 FPS (1024 SPF)Compression mode : LossyStream size : 108 MiB (4%)Title : Russian / MVO, KinomaniyaEncoded date : UTC 2018-07-13 19:40:58Tagged date : UTC 2018-07-14 07:54:58

Audio #4ID : 5Format : AACFormat/Info : Advanced Audio CodecFormat profile : LCCodec ID : mp4a-40-2Duration : 1 h 57 minBit rate mode : VariableBit rate : 128 kb/sMaximum bit rate : 137 kb/sChannel(s) : 2 channelsChannel positions : Front: L RSampling rate : 48.0 kHzFrame rate : 46.875 FPS (1024 SPF)Compression mode : LossyStream size : 108 MiB (4%)Title : Russian / VO, ZhuvovEncoded date : UTC 2018-07-13 19:53:11Tagged date : UTC 2018-07-14 07:54:58

Audio #5ID : 6Format : AACFormat/Info : Advanced Audio CodecFormat profile : LCCodec ID : mp4a-40-2Duration : 1 h 57 minBit rate mode : VariableBit rate : 128 kb/sMaximum bit rate : 138 kb/sChannel(s) : 2 channelsChannel positions : Front: L RSampling rate : 48.0 kHzFrame rate : 46.875 FPS (1024 SPF)Compression mode : LossyStream size : 108 MiB (4%)Title : Russian / VO, GavrilovEncoded date : UTC 2018-07-13 19:49:03Tagged date : UTC 2018-07-14 07:54:58

Audio #6ID : 7Format : AACFormat/Info : Advanced Audio CodecFormat profile : LCCodec ID : mp4a-40-2Duration : 1 h 57 minBit rate mode : VariableBit rate : 128 kb/sMaximum bit rate : 136 kb/sChannel(s) : 2 channelsChannel positions : Front: L RSampling rate : 48.0 kHzFrame rate : 46.875 FPS (1024 SPF)Compression mode : LossyStream size : 108 MiB (4%)Title : Russian / VO, EsarevEncoded date : UTC 2018-07-13 20:09:11Tagged date : UTC 2018-07-14 07:54:58

Audio #7ID : 8Format : AACFormat/Info : Advanced Audio CodecFormat profile : LCCodec ID : mp4a-40-2Duration : 1 h 57 minBit rate mode : VariableBit rate : 128 kb/sMaximum bit rate : 136 kb/sChannel(s) : 2 channelsChannel positions : Front: L RSampling rate : 48.0 kHzFrame rate : 46.875 FPS (1024 SPF)Compression mode : LossyStream size : 108 MiB (4%)Title : Russian / VO, MatveevEncoded date : UTC 2018-07-13 20:05:06Tagged date : UTC 2018-07-14 07:54:58

Audio #8ID : 9Format : AACFormat/Info : Advanced Audio CodecFormat profile : LCCodec ID : mp4a-40-2Duration : 1 h 57 minBit rate mode : VariableBit rate : 128 kb/sMaximum bit rate : 135 kb/sChannel(s) : 2 channelsChannel positions : Front: L RSampling rate : 48.0 kHzFrame rate : 46.875 FPS (1024 SPF)Compression mode : LossyStream size : 108 MiB (4%)Title : Russian / VO, KarcevEncoded date : UTC 2018-07-13 19:57:16Tagged date : UTC 2018-07-14 07:54:58

Audio #9ID : 10Format : AACFormat/Info : Advanced Audio CodecFormat profile : LCCodec ID : mp4a-40-2Duration : 1 h 57 minBit rate mode : VariableBit rate : 128 kb/sMaximum bit rate : 137 kb/sChannel(s) : 2 channelsChannel positions : Front: L RSampling rate : 48.0 kHzFrame rate : 46.875 FPS (1024 SPF)Compression mode : LossyStream size : 108 MiB (4%)Title : Russian / VO, PopovEncoded date : UTC 2018-07-13 20:01:02Tagged date : UTC 2018-07-14 07:54:58

Audio #10ID : 11Format : AACFormat/Info : Advanced Audio CodecFormat profile : LCCodec ID : mp4a-40-2Duration : 1 h 57 minBit rate mode : VariableBit rate : 128 kb/sMaximum bit rate : 136 kb/sChannel(s) : 2 channelsChannel positions : Front: L RSampling rate : 48.0 kHzFrame rate : 46.875 FPS (1024 SPF)Compression mode : LossyStream size : 108 MiB (4%)Title : Russian / VO, PozdnyakovEncoded date : UTC 2018-07-13 20:20:20Tagged date : UTC 2018-07-14 07:54:58

Audio #11ID : 12Format : AACFormat/Info : Advanced Audio CodecFormat profile : LCCodec ID : mp4a-40-2Duration : 1 h 57 minBit rate mode : VariableBit rate : 128 kb/sMaximum bit rate : 135 kb/sChannel(s) : 2 channelsChannel positions : Front: L RSampling rate : 48.0 kHzFrame rate : 46.875 FPS (1024 SPF)Compression mode : LossyStream size : 107 MiB (4%)Title : Russian / VO, ZavgorodniyEncoded date : UTC 2018-07-13 20:12:50Tagged date : UTC 2018-07-14 07:54:58

Audio #12ID : 13Format : AACFormat/Info : Advanced Audio CodecFormat profile : LCCodec ID : mp4a-40-2Duration : 1 h 57 minBit rate mode : VariableBit rate : 128 kb/sMaximum bit rate : 137 kb/sChannel(s) : 2 channelsChannel positions : Front: L RSampling rate : 48.0 kHzFrame rate : 46.875 FPS (1024 SPF)Compression mode : LossyStream size : 108 MiB (4%)Title : English / OriginalEncoded date : UTC 2018-07-13 19:33:13Tagged date : UTC 2018-07-14 07:54:58

Text #1ID : 14Format : Timed TextCodec ID : tx3gDuration : 1 h 57 minBit rate mode : VariableBit rate : 53 b/sStream size : 45.7 KiB (0%)Title : Russian / Full Blu-ray CEEForced : NoEncoded date : UTC 2018-07-14 07:54:58Tagged date : UTC 2018-07-14 07:54:58

Text #2ID : 15Format : Timed TextCodec ID : tx3gDuration : 1 h 52 minBit rate mode : VariableBit rate : 52 b/sStream size : 42.4 KiB (0%)Title : Russian / TycoonForced : NoEncoded date : UTC 2018-07-14 07:54:58Tagged date : UTC 2018-07-14 07:54:58

Text #3ID : 16Format : Timed TextCodec ID : tx3gDuration : 1 h 52 minBit rate mode : VariableBit rate : 33 b/sStream size : 27.4 KiB (0%)Title : English / FullForced : NoEncoded date : UTC 2018-07-14 07:54:58Tagged date : UTC 2018-07-14 07:54:58

Text #4ID : 17Format : Timed TextCodec ID : tx3gDuration : 1 h 52 minBit rate mode : VariableBit rate : 36 b/sStream size : 30.0 KiB (0%)Title : English / SDHForced : NoEncoded date : UTC 2018-07-14 07:54:58Tagged date : UTC 2018-07-14 07:54:58


Трекер:  [ 14-Июл-2018 11:36 ]

  

Скачать .torrent

Размер .torrent файла 12 KB


Размер: 2.43 GB
Хэш (hash) релиза: 0bff3fa8cf1a0fa158e0ea43568906d1afaae256

Торренты, похожие на [VIDEO] Бегущий по лезвию Blade Runner скачать торрент

Форум Название Автор Размер S L Добавлен
Видео (Фильмы/Клипы) ·%· [VIDEO] Бегущий по лезвию / Blade Runner (Ридли Скотт / Ridley Scott) [1982, драма, триллер, фантастика, BDRip] [MP4, 960x] [международная кинотеатральная версия / International theatrical cut] Galfimbul 23363383932.18 GB 0 0 1531641998

11:06

15-Июл-18

Видео (Фильмы/Клипы) ·%· [VIDEO] Бегущий по лезвию / Blade Runner (Ридли Скотт / Ridley Scott) [1982, драма, триллер, фантастика, BDRip] [MP4, 1280x] [международная кинотеатральная версия / International theatrical cut] Galfimbul 33580435113.13 GB 0 0 1531641989

11:06

15-Июл-18

Видео (Фильмы/Клипы) ·%· [VIDEO] Бегущий по лезвию / Blade Runner (Ридли Скотт / Ridley Scott) [1982, драма, триллер, фантастика, BDRip] [MP4, 480x] [международная кинотеатральная версия / International theatrical cut] Galfimbul 561291455535 MB 0 0 1531641979

11:06

15-Июл-18

Видео (Фильмы/Клипы) ·%· [VIDEO] Бегущий по лезвию / Blade Runner (Ридли Скотт / Ridley Scott) [1982, драма, триллер, фантастика, BDRip] [MP4, 480x] [Финальная версия / Final Cut] Dub Blu-ray CEE Galfimbul 557271847531 MB 0 0 1531557403

11:36

14-Июл-18

Видео (Фильмы/Клипы) ·%· [VIDEO] Бегущий по лезвию / Blade Runner (Ридли Скотт / Ridley Scott) [1982, драма, триллер, фантастика, BDRip] [MP4, 1280x] [Финальная версия / Final Cut] Galfimbul 34000759113.17 GB 0 0 1531557385

11:36

14-Июл-18

Видео (Фильмы/Клипы) ·· [VIDEO] Бегущий по лезвию 2049 / Blade Runner 2049 (Дени Вильнёв / Denis Villeneuve) [2017, фантастика, триллер, драма, BDRip] [MP4, 480x] [Оригинальный видеоряд] Dub Blu-Ray EUR Galfimbul 706825536674 MB 0 0 1527410180

11:36

27-Май-18

Видео (Фильмы/Клипы) ·· [VIDEO] Бегущий по лезвию 2049 / Blade Runner 2049 (Дени Вильнёв / Denis Villeneuve) [2017, фантастика, триллер, драма, BDRip] [MP4, 1280x] [Оригинальный видеоряд] Dub (Rus, Ukr), VO Д. Есарев, VO Solod, Original, Sub (rus, ukr, eng) Galfimbul 28828708452.68 GB 0 0 1527397586

08:06

27-Май-18

Видео (Фильмы/Клипы) ·· [VIDEO] Бегущий по лезвию 2049 / Blade Runner 2049 (Дени Вильнёв / Denis Villeneuve) [2017, фантастика, триллер, драма, BDRip] [MP4, 960x] [Оригинальный видеоряд] Dub (Rus, Ukr), VO Д. Есарев, VO Solod, Original, Sub (rus, ukr, eng) Galfimbul 20244038841.89 GB 0 0 1527397578

08:06

27-Май-18

Еще никто не оставлял запись к записи скачать торрент [VIDEO] Бегущий по лезвию Blade Runner . Будь первым!

!Обратная связь