Скачать через торрент [VIDEO] Бегущий по лезвию Blade Runner бесплатно русская версия torrent активатор

Статистика раздачи
Размер:  531 MB   |    Зарегистрирован:  4 месяца 29 дней   |    .torrent скачан:  28 раз   |   
Раздают:  1  
   
загрузка...
 
Автор Сообщение

Galfimbul

avatar Galfimbul


Бегущий по лезвию / Blade Runner
[Финальная версия / Final Cut]

Год выпуска: 1982
Страна: США, Гонконг
Жанр: драма, триллер, фантастика
Продолжительность: 01:57:37
Перевод: русский Профессиональный (полное дублирование) Blu-ray CEE
Субтитры: нет
Режиссер: Ридли Скотт / Ridley Scott
В ролях: Харрисон Форд, Рутгер Хауэр, Шон Янг, Эдвард Джеймс Олмос, М. Эммет Уолш, Дэрил Ханна, Уильям Сэндерсон, Брайон Джеймс Дин и другие .
Описание: Отставной детектив Рик Декард вновь восстановлен в полиции Лос-Анджелеса для поиска возглавляемой Роем Батти группы киборгов, совершившей побег из космической колонии на Землю.
[i]Релиз группы

Качество: BDRip / рип с Blu-ray disc 1080p [The Final Cut]
Формат: MP4
Видео кодек: XviD
Аудио кодек: AAC
Видео: 480x200 AR:2.40 500 kbps 23.976 fps
Аудио: [Russian] 2ch 48 kHz 128 kbps - [Dub] Профессиональный (полное дублирование) Blu-ray CEE
GeneralComplete name : K:\Torrents\Blade Runner.[Final Cut].1982.BDRip.XviD.480x.rip by Frost O.S.mp4Format : MPEG-4Format profile : 3GPP Media Release 5Codec ID : 3gp5 (isom/3gp5/3gp4/mp41/mp42)File size : 531 MiBDuration : 1 h 57 minOverall bit rate mode : VariableOverall bit rate : 632 kb/sEncoded date : UTC 2018-07-14 07:57:54Tagged date : UTC 2018-07-14 07:57:54

VideoID : 1Format : MPEG-4 VisualFormat profile : Advanced Simple@L5Format settings : BVOP / Custom MatrixFormat settings, BVOP : YesFormat settings, QPel : NoFormat settings, GMC : No warppointsFormat settings, Matrix : CustomCodec ID : mp4v-20Duration : 1 h 57 minBit rate mode : VariableBit rate : 500 kb/sMaximum bit rate : 3 660 kb/sWidth : 480 pixelsHeight : 200 pixelsDisplay aspect ratio : 2.40:1Frame rate mode : VariableFrame rate : 23.976 (24000/1001) FPSMinimum frame rate : 11.988 FPSMaximum frame rate : 23.976 FPSColor space : YUVChroma subsampling : 4:2:0Bit depth : 8 bitsScan type : ProgressiveCompression mode : LossyBits/(Pixel*Frame) : 0.217Stream size : 421 MiB (79%)Title : avi@GPAC0.5.2-DEV-rev248-g39d5978-masterWriting library : XviD 1.2.1 (UTC 2008-12-04)Encoded date : UTC 2018-07-13 18:44:49Tagged date : UTC 2018-07-14 07:57:58

AudioID : 2Format : AACFormat/Info : Advanced Audio CodecFormat profile : LCCodec ID : mp4a-40-2Duration : 1 h 57 minBit rate mode : VariableBit rate : 128 kb/sMaximum bit rate : 135 kb/sChannel(s) : 2 channelsChannel positions : Front: L RSampling rate : 48.0 kHzFrame rate : 46.875 FPS (1024 SPF)Compression mode : LossyStream size : 108 MiB (20%)Title : Russian / Dub, Blu-ray CEEEncoded date : UTC 2018-07-13 19:37:08Tagged date : UTC 2018-07-14 07:57:58


Трекер:  [ 14-Июл-2018 11:36 ]

  

Скачать .torrent

Размер .torrent файла 11 KB


Размер: 531 MB
Хэш (hash) релиза: 1ad84ff110af8dba49c50ba3674cbad82b4fde78

Торренты, похожие на [VIDEO] Бегущий по лезвию Blade Runner скачать торрент

Форум Название Автор Размер S L Добавлен
Видео (Фильмы/Клипы) ·%· [VIDEO] Бегущий по лезвию / Blade Runner (Ридли Скотт / Ridley Scott) [1982, драма, триллер, фантастика, BDRip] [MP4, 960x] [международная кинотеатральная версия / International theatrical cut] Galfimbul 23363383932.18 GB 0 0 1531641998

11:06

15-Июл-18

Видео (Фильмы/Клипы) ·%· [VIDEO] Бегущий по лезвию / Blade Runner (Ридли Скотт / Ridley Scott) [1982, драма, триллер, фантастика, BDRip] [MP4, 1280x] [международная кинотеатральная версия / International theatrical cut] Galfimbul 33580435113.13 GB 0 0 1531641989

11:06

15-Июл-18

Видео (Фильмы/Клипы) ·%· [VIDEO] Бегущий по лезвию / Blade Runner (Ридли Скотт / Ridley Scott) [1982, драма, триллер, фантастика, BDRip] [MP4, 480x] [международная кинотеатральная версия / International theatrical cut] Galfimbul 561291455535 MB 0 0 1531641979

11:06

15-Июл-18

Видео (Фильмы/Клипы) ·%· [VIDEO] Бегущий по лезвию / Blade Runner (Ридли Скотт / Ridley Scott) [1982, драма, триллер, фантастика, BDRip] [MP4, 960x] [Финальная версия / Final Cut] Galfimbul 26079931322.43 GB 0 0 1531557395

11:36

14-Июл-18

Видео (Фильмы/Клипы) ·%· [VIDEO] Бегущий по лезвию / Blade Runner (Ридли Скотт / Ridley Scott) [1982, драма, триллер, фантастика, BDRip] [MP4, 1280x] [Финальная версия / Final Cut] Galfimbul 34000759113.17 GB 0 0 1531557385

11:36

14-Июл-18

Видео (Фильмы/Клипы) ·· [VIDEO] Бегущий по лезвию 2049 / Blade Runner 2049 (Дени Вильнёв / Denis Villeneuve) [2017, фантастика, триллер, драма, BDRip] [MP4, 480x] [Оригинальный видеоряд] Dub Blu-Ray EUR Galfimbul 706825536674 MB 0 0 1527410180

11:36

27-Май-18

Видео (Фильмы/Клипы) ·· [VIDEO] Бегущий по лезвию 2049 / Blade Runner 2049 (Дени Вильнёв / Denis Villeneuve) [2017, фантастика, триллер, драма, BDRip] [MP4, 1280x] [Оригинальный видеоряд] Dub (Rus, Ukr), VO Д. Есарев, VO Solod, Original, Sub (rus, ukr, eng) Galfimbul 28828708452.68 GB 0 0 1527397586

08:06

27-Май-18

Видео (Фильмы/Клипы) ·· [VIDEO] Бегущий по лезвию 2049 / Blade Runner 2049 (Дени Вильнёв / Denis Villeneuve) [2017, фантастика, триллер, драма, BDRip] [MP4, 960x] [Оригинальный видеоряд] Dub (Rus, Ukr), VO Д. Есарев, VO Solod, Original, Sub (rus, ukr, eng) Galfimbul 20244038841.89 GB 0 0 1527397578

08:06

27-Май-18

Еще никто не оставлял запись к записи скачать торрент [VIDEO] Бегущий по лезвию Blade Runner . Будь первым!

!Обратная связь