Скачать через торрент [VIDEO] Бегущий по лезвию Blade Runner бесплатно русская версия torrent активатор

Статистика раздачи
Размер:  2.18 GB   |    Зарегистрирован:  3 месяца 1 день   |    .torrent скачан:  20 раз   |   
Раздают:  1  
   
загрузка...
 
Автор Сообщение

Galfimbul

avatar Galfimbul


Бегущий по лезвию / Blade Runner
[международная кинотеатральная версия / International theatrical cut]

Год выпуска: 1982
Страна: США, Гонконг
Жанр: драма, триллер, фантастика
Продолжительность: 01:57:39
Перевод №1: русский Профессиональный (полное дублирование) с VHS
Перевод №2: русский Профессиональный (многоголосый, закадровый) студия "Карусель"
Перевод №3: русский Авторский (одноголосый, закадровый) А.Гаврилов
Перевод №4: русский Авторский (одноголосый, закадровый) В.Горчаков
Перевод №5: русский Авторский (одноголосый, закадровый) М.Иванов
Перевод №6: русский Авторский (одноголосый, закадровый) Л.Володарский
Оригинальная дорожка: Есть
Субтитры: русские (Forced на непереведённый финальный монолог для дорожек с переводом А. Гаврилова и В. Горчакова), (Forced на непереведённые фрагменты для дорожки с переводом Л. Володарского), (Full), английские (Full)
Режиссер: Ридли Скотт / Ridley Scott
В ролях: Харрисон Форд, Рутгер Хауэр, Шон Янг, Эдвард Джеймс Олмос, М. Эммет Уолш, Дэрил Ханна, Уильям Сэндерсон, Брайон Джеймс Дин и другие .
Описание: Отставной детектив Рик Декард вновь восстановлен в полиции Лос-Анджелеса для поиска возглавляемой Роем Батти группы киборгов, совершившей побег из космической колонии на Землю.
[i]Релиз группы

Качество: BDRip / рип с BDRemux 1080p [International theatrical cut]
Формат: MP4
Видео кодек: H.264
Аудио кодек: AAC
Видео: 960x400 AR:2.40 1740 kbps 23.976 fps
Аудио №1: [Russian] 2ch 48 kHz 128 kbps - [Dub] Профессиональный (полное дублирование) с VHS
Аудио №2: [Russian] 2ch 48 kHz 128 kbps - [MVO] Любительский (многоголосый, закадровый) студия "Карусель"
Аудио №3: [Russian] 2ch 48 kHz 128 kbps - [VO] Авторский (одноголосый, закадровый) А.Гаврилов
Аудио №4: [Russian] 2ch 48 kHz 128 kbps - [VO] Авторский (одноголосый, закадровый) В.Горчаков
Аудио №5: [Russian] 2ch 48 kHz 128 kbps - [VO] Авторский (одноголосый, закадровый) М.Иванов
Аудио №6: [Russian] 2ch 48 kHz 128 kbps - [VO] Авторский (одноголосый, закадровый) Л.Володарский
Аудио №7: [English] 2ch 48 kHz 128 kbps - Original
avs [info]: 960x400p 1:1 @ 24000/1001 fps (cfr)
x264 [info]: using SAR=1/1
x264 [info]: using cpu capabilities: MMX2 SSE2Fast SSSE3 SSE4.2 AVX FMA3 BMI2 AVX2
x264 [info]: profile High, level 4.1

x264 [info]: frame I:1105 Avg QP:16.19 size: 49346
x264 [info]: frame P:34627 Avg QP:19.55 size: 17886
x264 [info]: frame B:133347 Avg QP:21.42 size: 6444
x264 [info]: consecutive B-frames: 1.8% 2.2% 5.9% 18.1% 17.0% 34.1% 8.9% 6.2% 2.8% 3.0%
x264 [info]: mb I I16..4: 12.2% 73.7% 14.1%
x264 [info]: mb P I16..4: 0.7% 7.8% 0.9% P16..4: 33.6% 40.1% 11.9% 0.0% 0.0% skip: 5.0%
x264 [info]: mb B I16..4: 0.1% 0.6% 0.1% B16..8: 39.1% 20.8% 3.4% direct: 6.0% skip:29.9% L0:48.4% L1:43.8% BI: 7.8%
x264 [info]: 8x8 transform intra:80.4% inter:60.2%
x264 [info]: direct mvs spatial:98.4% temporal:1.6%
x264 [info]: coded y,uvDC,uvAC intra: 91.3% 79.8% 46.7% inter: 31.5% 21.8% 4.4%
x264 [info]: i16 v,h,dc,p: 23% 12% 18% 47%
x264 [info]: i8 v,h,dc,ddl,ddr,vr,hd,vl,hu: 7% 6% 6% 11% 16% 15% 14% 12% 13%
x264 [info]: i4 v,h,dc,ddl,ddr,vr,hd,vl,hu: 12% 7% 6% 9% 15% 15% 13% 12% 13%
x264 [info]: i8c dc,h,v,p: 39% 25% 18% 17%
x264 [info]: Weighted P-Frames: Y:24.9% UV:14.9%
x264 [info]: ref P L0: 38.9% 9.4% 18.0% 7.9% 6.6% 4.8% 4.4% 2.5% 2.5% 2.1% 2.2% 0.6% 0.0%
x264 [info]: ref B L0: 64.4% 13.3% 7.6% 4.2% 3.1% 2.6% 2.1% 1.4% 0.9% 0.4%
x264 [info]: ref B L1: 92.8% 7.2%
x264 [info]: kb/s:1739.33

encoded 169079 frames, 14.63 fps, 1739.33 kb/s
GeneralComplete name : K:\Torrents\Blade Runner.[International theatrical cut].1982.BDRip.x264.960x.rip by Frost O.S.mp4Format : MPEG-4Format profile : 3GPP Release 6 GeneralCodec ID : 3gg6 (isom/3gg6/mp42)File size : 2.18 GiBDuration : 1 h 57 minOverall bit rate mode : VariableOverall bit rate : 2 648 kb/sEncoded date : UTC 2018-07-15 07:21:26Tagged date : UTC 2018-07-15 07:21:26

VideoID : 1Format : AVCFormat/Info : Advanced Video CodecFormat profile : High@L4.1Format settings : CABAC / 11 Ref FramesFormat settings, CABAC : YesFormat settings, RefFrames : 11 framesCodec ID : avc1Codec ID/Info : Advanced Video CodingDuration : 1 h 57 minBit rate : 1 740 kb/sMaximum bit rate : 7 200 kb/sWidth : 960 pixelsHeight : 400 pixelsDisplay aspect ratio : 2.40:1Frame rate mode : ConstantFrame rate : 23.976 (24000/1001) FPSColor space : YUVChroma subsampling : 4:2:0Bit depth : 8 bitsScan type : ProgressiveBits/(Pixel*Frame) : 0.189Stream size : 1.43 GiB (66%)Writing library : x264 core 152 r2851 ba24899Encoding settings : cabac=1 / ref=11 / deblock=1:-2:-1 / analyse=0x3:0x113 / me=umh / subme=11 / psy=1 / psy_rd=1.00:0.00 / mixed_ref=1 / me_range=32 / chroma_me=1 / trellis=2 / 8x8dct=1 / cqm=0 / deadzone=21,11 / fast_pskip=0 / chroma_qp_offset=-2 / threads=6 / lookahead_threads=1 / sliced_threads=0 / nr=0 / decimate=0 / interlaced=0 / bluray_compat=0 / constrained_intra=0 / bframes=9 / b_pyramid=2 / b_adapt=2 / b_bias=0 / direct=3 / weightb=1 / open_gop=0 / weightp=2 / keyint=250 / keyint_min=23 / scenecut=40 / intra_refresh=0 / rc=2pass / mbtree=0 / bitrate=1740 / ratetol=1.0 / qcomp=0.70 / qpmin=0 / qpmax=69 / qpstep=4 / cplxblur=20.0 / qblur=0.5 / ip_ratio=1.40 / pb_ratio=1.30 / aq=1:0.80Encoded date : UTC 2018-07-14 19:41:41Tagged date : UTC 2018-07-15 07:22:00Color range : LimitedColor primaries : BT.709Transfer characteristics : BT.709Matrix coefficients : BT.709

Audio #1ID : 2Format : AACFormat/Info : Advanced Audio CodecFormat profile : LCCodec ID : mp4a-40-2Duration : 1 h 57 minBit rate mode : VariableBit rate : 128 kb/sMaximum bit rate : 136 kb/sChannel(s) : 2 channelsChannel positions : Front: L RSampling rate : 48.0 kHzFrame rate : 46.875 FPS (1024 SPF)Compression mode : LossyStream size : 108 MiB (5%)Title : Russian / Dub, c VHSEncoded date : UTC 2018-07-15 06:58:16Tagged date : UTC 2018-07-15 07:22:00

Audio #2ID : 3Format : AACFormat/Info : Advanced Audio CodecFormat profile : LCCodec ID : mp4a-40-2Duration : 1 h 57 minBit rate mode : VariableBit rate : 128 kb/sMaximum bit rate : 133 kb/sChannel(s) : 2 channelsChannel positions : Front: L RSampling rate : 48.0 kHzFrame rate : 46.875 FPS (1024 SPF)Compression mode : LossyStream size : 108 MiB (5%)Title : Russian / MVO, studiya KaruselEncoded date : UTC 2018-07-15 06:43:05Tagged date : UTC 2018-07-15 07:22:00

Audio #3ID : 4Format : AACFormat/Info : Advanced Audio CodecFormat profile : LCCodec ID : mp4a-40-2Duration : 1 h 57 minBit rate mode : VariableBit rate : 128 kb/sMaximum bit rate : 134 kb/sChannel(s) : 2 channelsChannel positions : Front: L RSampling rate : 48.0 kHzFrame rate : 46.875 FPS (1024 SPF)Compression mode : LossyStream size : 108 MiB (5%)Title : Russian / VO, GavrilovEncoded date : UTC 2018-07-15 07:01:33Tagged date : UTC 2018-07-15 07:22:00

Audio #4ID : 5Format : AACFormat/Info : Advanced Audio CodecFormat profile : LCCodec ID : mp4a-40-2Duration : 1 h 57 minBit rate mode : VariableBit rate : 128 kb/sMaximum bit rate : 134 kb/sChannel(s) : 2 channelsChannel positions : Front: L RSampling rate : 48.0 kHzFrame rate : 46.875 FPS (1024 SPF)Compression mode : LossyStream size : 108 MiB (5%)Title : Russian / VO, GorchakovEncoded date : UTC 2018-07-15 06:50:47Tagged date : UTC 2018-07-15 07:22:00

Audio #5ID : 6Format : AACFormat/Info : Advanced Audio CodecFormat profile : LCCodec ID : mp4a-40-2Duration : 1 h 57 minBit rate mode : VariableBit rate : 128 kb/sMaximum bit rate : 133 kb/sChannel(s) : 2 channelsChannel positions : Front: L RSampling rate : 48.0 kHzFrame rate : 46.875 FPS (1024 SPF)Compression mode : LossyStream size : 108 MiB (5%)Title : Russian / VO, IvanovEncoded date : UTC 2018-07-15 06:39:24Tagged date : UTC 2018-07-15 07:22:00

Audio #6ID : 7Format : AACFormat/Info : Advanced Audio CodecFormat profile : LCCodec ID : mp4a-40-2Duration : 1 h 57 minBit rate mode : VariableBit rate : 128 kb/sMaximum bit rate : 134 kb/sChannel(s) : 2 channelsChannel positions : Front: L RSampling rate : 48.0 kHzFrame rate : 46.875 FPS (1024 SPF)Compression mode : LossyStream size : 108 MiB (5%)Title : Russian / VO, VolodarskiyEncoded date : UTC 2018-07-15 06:54:36Tagged date : UTC 2018-07-15 07:22:00

Audio #7ID : 8Format : AACFormat/Info : Advanced Audio CodecFormat profile : LCCodec ID : mp4a-40-2Duration : 1 h 57 minBit rate mode : VariableBit rate : 128 kb/sMaximum bit rate : 134 kb/sChannel(s) : 2 channelsChannel positions : Front: L RSampling rate : 48.0 kHzFrame rate : 46.875 FPS (1024 SPF)Compression mode : LossyStream size : 108 MiB (5%)Title : English / OriginalEncoded date : UTC 2018-07-15 06:46:58Tagged date : UTC 2018-07-15 07:22:00

Text #1ID : 9Format : Timed TextCodec ID : tx3gDuration : 1 h 53 minBit rate mode : VariableBit rate : 1 b/sStream size : 461 Bytes (0%)Title : Russian / Forced for Gavrilova&GorchakovaForced : NoEncoded date : UTC 2018-07-15 07:22:00Tagged date : UTC 2018-07-15 07:22:00

Text #2ID : 10Format : Timed TextCodec ID : tx3gDuration : 36 min 41 sBit rate mode : VariableBit rate : 4 b/sStream size : 1 004 Bytes (0%)Title : Russian / Forced for VolodarskogoForced : NoEncoded date : UTC 2018-07-15 07:22:00Tagged date : UTC 2018-07-15 07:22:00

Text #3ID : 11Format : Timed TextCodec ID : tx3gDuration : 1 h 57 minBit rate mode : VariableBit rate : 56 b/sStream size : 48.6 KiB (0%)Title : Russian / FullForced : NoEncoded date : UTC 2018-07-15 07:22:00Tagged date : UTC 2018-07-15 07:22:00

Text #4ID : 12Format : Timed TextCodec ID : tx3gDuration : 1 h 53 minBit rate mode : VariableBit rate : 31 b/sStream size : 25.7 KiB (0%)Title : English / FullForced : NoEncoded date : UTC 2018-07-15 07:22:00Tagged date : UTC 2018-07-15 07:22:00


Трекер:  [ 15-Июл-2018 11:06 ]

  

Скачать .torrent

Размер .torrent файла 11 KB


Размер: 2.18 GB
Хэш (hash) релиза: 8cbb87212402220f51b98211f10e01540a7ba931

Торренты, похожие на [VIDEO] Бегущий по лезвию Blade Runner скачать торрент

Форум Название Автор Размер S L Добавлен
Видео (Фильмы/Клипы) ·%· [VIDEO] Бегущий по лезвию / Blade Runner (Ридли Скотт / Ridley Scott) [1982, драма, триллер, фантастика, BDRip] [MP4, 1280x] [международная кинотеатральная версия / International theatrical cut] Galfimbul 33580435113.13 GB 0 0 1531641989

11:06

15-Июл-18

Видео (Фильмы/Клипы) ·%· [VIDEO] Бегущий по лезвию / Blade Runner (Ридли Скотт / Ridley Scott) [1982, драма, триллер, фантастика, BDRip] [MP4, 480x] [международная кинотеатральная версия / International theatrical cut] Galfimbul 561291455535 MB 0 0 1531641979

11:06

15-Июл-18

Видео (Фильмы/Клипы) ·%· [VIDEO] Бегущий по лезвию / Blade Runner (Ридли Скотт / Ridley Scott) [1982, драма, триллер, фантастика, BDRip] [MP4, 480x] [Финальная версия / Final Cut] Dub Blu-ray CEE Galfimbul 557271847531 MB 0 0 1531557403

11:36

14-Июл-18

Видео (Фильмы/Клипы) ·%· [VIDEO] Бегущий по лезвию / Blade Runner (Ридли Скотт / Ridley Scott) [1982, драма, триллер, фантастика, BDRip] [MP4, 960x] [Финальная версия / Final Cut] Galfimbul 26079931322.43 GB 0 0 1531557395

11:36

14-Июл-18

Видео (Фильмы/Клипы) ·%· [VIDEO] Бегущий по лезвию / Blade Runner (Ридли Скотт / Ridley Scott) [1982, драма, триллер, фантастика, BDRip] [MP4, 1280x] [Финальная версия / Final Cut] Galfimbul 34000759113.17 GB 0 0 1531557385

11:36

14-Июл-18

Видео (Фильмы/Клипы) ·· [VIDEO] Бегущий по лезвию 2049 / Blade Runner 2049 (Дени Вильнёв / Denis Villeneuve) [2017, фантастика, триллер, драма, BDRip] [MP4, 480x] [Оригинальный видеоряд] Dub Blu-Ray EUR Galfimbul 706825536674 MB 0 0 1527410180

11:36

27-Май-18

Видео (Фильмы/Клипы) ·· [VIDEO] Бегущий по лезвию 2049 / Blade Runner 2049 (Дени Вильнёв / Denis Villeneuve) [2017, фантастика, триллер, драма, BDRip] [MP4, 1280x] [Оригинальный видеоряд] Dub (Rus, Ukr), VO Д. Есарев, VO Solod, Original, Sub (rus, ukr, eng) Galfimbul 28828708452.68 GB 0 0 1527397586

08:06

27-Май-18

Видео (Фильмы/Клипы) ·· [VIDEO] Бегущий по лезвию 2049 / Blade Runner 2049 (Дени Вильнёв / Denis Villeneuve) [2017, фантастика, триллер, драма, BDRip] [MP4, 960x] [Оригинальный видеоряд] Dub (Rus, Ukr), VO Д. Есарев, VO Solod, Original, Sub (rus, ukr, eng) Galfimbul 20244038841.89 GB 0 0 1527397578

08:06

27-Май-18

Еще никто не оставлял запись к записи скачать торрент [VIDEO] Бегущий по лезвию Blade Runner . Будь первым!

!Обратная связь