Скачать через торрент Славные парни The Nice Guys Фильм бесплатно в хорошем качестве torrent

Скачивайте на UnionPeer.org фильмы через торрент без регистрации. Новинки кино в хорошем качестве через торрент. На UnionPeer.org можно скачать через торрент фильмы 2014 и 2015 годов. Самые новые фильмы.

Скачать торрент Славные парни The Nice Guys бесплатно через .torrent фильм мультфильм сериал

Статистика раздачи
Размер:  20.03 GB   |    Зарегистрирован:  5 лет 7 месяцев   |    .torrent скачан:  46 раз   |   
Раздают:  1  
 

Скачать Славные парни / The Nice Guys (2016) WEBRip 2160p от MediaClub | HDR | D, P2, A через torrent

 
 
Автор Сообщение

Galfimbul

avatar Galfimbul


Славные парни /The Nice Guys

Год выхода: 2016
Жанр: Криминал, комедия
Режиссер: Шейн Блэк
В ролях: Райан Гослинг, Ким Бейсингер, Расселл Кроу, Энгаури Райс, Мэтт Бомер, Маргарет Куэлли, Йайа ДаКоста, Кит Дэвид, Бо Напп, Лоис Смит

О фильме:
Что может объединить двух совершенно разных людей - частного сыщика Марчи Холланда и наёмного вышибалу Хили Джексона? Лос-Анджелес 1970 год. Два, кажется несвязанных между собой дела, которые взялись расследовать эти разные по профессиям и жизненным позициям человека, пропажа девушки и смерть порнозвезды. В ходе расследования нити этих дел приведут к шокирующему результату - заговор в высших эшелонах власти!



Страна: США, Великобритания
Студия: Lip Sync Productions, Misty Mountains
Продолжительность: 01:55:57
Перевод: Дублированный, профессиональный двухголосый, авторский

Файл
Кодек: H.265
Качество: WEBRip 2160p
Видео: HEVC HDR, 19.1 Mбит/с, 3840x1600, 23.976 кадр/с
Звук:
Русский (АС3, 6 ch, 640 Кбит/с, 48.0 KHz) / Дублированный
Русский (АС3, 6 ch, 640 Кбит/с, 48.0 KHz) / Профессиональный двухголосый (Кубик в Кубе)
Русский (АС3, 6 ch, 640 Кбит/с, 48.0 KHz) / Авторский (М.Чадов),по переводу Д.Пучкова
Английский (DTS-HD MA, 6 ch, 3722 Кбит/с, 48.0 KHz)
Субтитры: Русские, английские (Full, SDH)

Семпл
General
Unique ID : 222793100993092025758280816764323135017 (0xA79C63F538F66B96123B8CA1202C7E29)
Complete name : C:UsersPublicVideosSample VideosFilmyThe.Nice.Guys.2016.2160p.HDR.WEBRip.MediaClub.mkv
Format : Matroska
Format version : Version 4 / Version 2
File size : 20.0 GiB
Duration : 1 h 55 min
Overall bit rate : 24.7 Mb/s
Encoded date : UTC 2018-07-13 09:22:10
Writing application : mkvmerge v19.0.0 ('Brave Captain') 64-bit
Writing library : libebml v1.3.5 + libmatroska v1.4.8
Cover : Yes
Attachments : cover.jpg

Video
ID : 1
Format : HEVC
Format/Info : High Efficiency Video Coding
Commercial name : HDR10
Format profile : Main 10@L5@Main
Codec ID : V_MPEGH/ISO/HEVC
Duration : 1 h 55 min
Bit rate : 19.1 Mb/s
Width : 3 840 pixels
Height : 1 600 pixels
Display aspect ratio : 2.40:1
Frame rate mode : Constant
Frame rate : 23.976 (24000/1001) FPS
Color space : YUV
Chroma subsampling : 4:2:0
Bit depth : 10 bits
Bits/(Pixel*Frame) : 0.130
Stream size : 15.5 GiB (77%)
Title : WEBRip.2160p.HDR by Silverok
Writing library : x265 2.6+31-3712d13c09bf:[Windows][GCC 7.2.0][64 bit] 10bit
Encoding settings : cpuid=1173503 / frame-threads=3 / numa-pools=8 / wpp / no-pmode / no-pme / no-psnr / no-ssim / log-level=2 / input-csp=1 / input-res=3840x1600 / interlace=0 / total-frames=166734 / level-idc=0 / high-tier=1 / uhd-bd=0 / ref=3 / no-allow-non-conformance / repeat-headers / annexb / no-aud / no-hrd / info / hash=0 / no-temporal-layers / open-gop / min-keyint=23 / keyint=250 / gop-lookahead=0 / bframes=4 / b-adapt=2 / b-pyramid / bframe-bias=0 / rc-lookahead=20 / lookahead-slices=8 / scenecut=40 / radl=0 / no-intra-refresh / ctu=64 / min-cu-size=8 / no-rect / no-amp / max-tu-size=32 / tu-inter-depth=1 / tu-intra-depth=1 / limit-tu=0 / rdoq-level=0 / dynamic-rd=0.00 / no-ssim-rd / signhide / no-tskip / nr-intra=0 / nr-inter=0 / no-constrained-intra / strong-intra-smoothing / max-merge=2 / limit-refs=3 / no-limit-modes / me=1 / subme=2 / merange=57 / temporal-mvp / weightp / no-weightb / no-analyze-src-pics / deblock=0:0 / sao / no-sao-non-deblock / rd=3 / no-early-skip / rskip / no-fast-intra / no-tskip-fast / no-cu-lossless / no-b-intra / no-splitrd-skip / rdpenalty=0 / psy-rd=2.00 / psy-rdoq=0.00 / no-rd-refine / no-lossless / cbqpoffs=0 / crqpoffs=0 / rc=crf / crf=10.0 / qcomp=0.60 / qpstep=4 / stats-write=0 / stats-read=0 / ipratio=1.40 / pbratio=1.30 / aq-mode=1 / aq-strength=1.00 / cutree / zone-count=0 / no-strict-cbr / qg-size=32 / no-rc-grain / qpmax=69 / qpmin=0 / no-const-vbv / sar=0 / overscan=0 / videoformat=5 / range=0 / colorprim=9 / transfer=16 / colormatrix=9 / chromaloc=0 / display-window=0 / master-display=G(13250,34500)B(7500,3000)R(34000,16000)WP(15635,16450)L(39990000,50) / max-cll=4000,1000 / min-luma=0 / max-luma=1023 / log2-max-poc-lsb=8 / vui-timing-info / vui-hrd-info / slices=1 / no-opt-qp-pps / no-opt-ref-list-length-pps / no-multi-pass-opt-rps / scenecut-bias=0.05 / no-opt-cu-delta-qp / no-aq-motion / hdr / hdr-opt / no-dhdr10-opt / analysis-reuse-level=5 / scale-factor=0 / refine-intra=0 / refine-inter=0 / refine-mv=0 / no-limit-sao / ctu-info=0 / no-lowpass-dct / refine-mv-type=0 / copy-pic=1
Default : Yes
Forced : No
Color range : Limited
Color primaries : BT.2020
Transfer characteristics : PQ
Matrix coefficients : BT.2020 non-constant
Mastering display color primaries : Display P3
Mastering display luminance : min: 0.0050 cd/m2, max: 3999 cd/m2
Maximum Content Light Level : 4000 cd/m2
Maximum Frame-Average Light Level : 1000 cd/m2

Audio #1
ID : 2
Format : AC-3
Format/Info : Audio Coding 3
Codec ID : A_AC3
Duration : 1 h 55 min
Bit rate mode : Constant
Bit rate : 640 kb/s
Channel(s) : 6 channels
Channel positions : Front: L C R, Side: L R, LFE
Sampling rate : 48.0 kHz
Frame rate : 31.250 FPS (1536 SPF)
Bit depth : 16 bits
Compression mode : Lossy
Stream size : 530 MiB (3%)
Title : Профессиональный (дублированный)
Language : Russian
Service kind : Complete Main
Default : Yes
Forced : No

Audio #2
ID : 3
Format : AC-3
Format/Info : Audio Coding 3
Codec ID : A_AC3
Duration : 1 h 55 min
Bit rate mode : Constant
Bit rate : 640 kb/s
Channel(s) : 6 channels
Channel positions : Front: L C R, Side: L R, LFE
Sampling rate : 48.0 kHz
Frame rate : 31.250 FPS (1536 SPF)
Bit depth : 16 bits
Compression mode : Lossy
Stream size : 531 MiB (3%)
Title : Профессиональный (двухголосый закадровый) «Кубик в Кубе»
Language : Russian
Service kind : Complete Main
Default : No
Forced : No

Audio #3
ID : 4
Format : AC-3
Format/Info : Audio Coding 3
Codec ID : A_AC3
Duration : 1 h 55 min
Bit rate mode : Constant
Bit rate : 640 kb/s
Channel(s) : 6 channels
Channel positions : Front: L C R, Side: L R, LFE
Sampling rate : 48.0 kHz
Frame rate : 31.250 FPS (1536 SPF)
Bit depth : 16 bits
Compression mode : Lossy
Stream size : 531 MiB (3%)
Title : Одноголосый закадровый М. Чадов по переводу Д. Пучкова
Language : Russian
Service kind : Complete Main
Default : No
Forced : No

Audio #4
ID : 8
Format : DTS
Format/Info : Digital Theater Systems
Format profile : MA / Core
Codec ID : A_DTS
Duration : 1 h 55 min
Bit rate mode : Variable / Constant
Bit rate : 3 722 kb/s / 1 509 kb/s
Channel(s) : 6 channels
Channel positions : Front: L C R, Side: L R, LFE
Sampling rate : 48.0 kHz
Frame rate : 93.750 FPS (512 SPF)
Bit depth : 24 bits
Compression mode : Lossless / Lossy
Stream size : 3.01 GiB (15%)
Language : English
Default : No
Forced : No

Text #1
ID : 5
Format : UTF-8
Codec ID : S_TEXT/UTF8
Codec ID/Info : UTF-8 Plain Text
Duration : 1 h 47 min
Bit rate : 115 b/s
Count of elements : 1806
Stream size : 91.2 KiB (0%)
Title : Full
Language : Russian
Default : Yes
Forced : No

Text #2
ID : 6
Format : UTF-8
Codec ID : S_TEXT/UTF8
Codec ID/Info : UTF-8 Plain Text
Duration : 1 h 47 min
Bit rate : 73 b/s
Count of elements : 1905
Stream size : 57.7 KiB (0%)
Title : Full
Language : English
Default : No
Forced : No

Text #3
ID : 7
Format : UTF-8
Codec ID : S_TEXT/UTF8
Codec ID/Info : UTF-8 Plain Text
Duration : 1 h 55 min
Bit rate : 74 b/s
Count of elements : 2116
Stream size : 63.5 KiB (0%)
Title : SDH
Language : English
Default : No
Forced : No
Релиз от: | Silverok
Источник http://BlaTor.org

Внимание! AdBlock блокирует показ скриншотов, все вопросы к разработчикам )))
Трекер:  [ 21-Июл-2018 13:20 ]

  

Скачать .torrent

Размер .torrent файла 50 KB


Размер: 20.03 GB
Хэш (hash) релиза: 84f95d80894a763c007d4ededc13f077ca3abdcb
Подписка на обновления:

Торренты, похожие на Славные парни The Nice Guys скачать торрент

Форум Название Автор Размер S L Добавлен
Зарубежные фильмы до 2016 ·· Славные парни / The Nice Guys (Шейн Блэк / Shane Black) [2016, США, Великобритания, криминал, комедия, боевик, DVD9] Dub Galfimbul 70661263366.58 GB 0 0 1524499286

19:01

23-Апр-18

Зарубежные фильмы до 2016 ·· Славные парни / The Nice Guys (Шейн Блэк / Shane Black) [2016, США, Великобритания, криминал, комедия, BDRip 720p] Dub (BD RUS) + DVO (Кубик в Кубе) + VO (М.Чадов) + Sub Rus, Eng + Original Eng Galfimbul 66245216286.17 GB 0 0 1485188770

19:26

23-Янв-17

Зарубежные фильмы до 2016 ·· Славные парни / The Nice Guys (Шейн Блэк / Shane Black) [2016, США, Великобритания, криминал, комедия, Blu-ray disc 1080p] [RUS] Dub Galfimbul 2249557545420.95 GB 0 0 1476130306

23:11

10-Окт-16

Зарубежные фильмы до 2016 ·· Славные парни / The Nice Guys (Шейн Блэк / Shane Black) [2016, США, Великобритания, криминал, комедия, BDRip 1080p] Dub (BD RUS) + DVO (Кубик в Кубе) + VO (М.Чадов) + Sub Rus, Eng + Original Eng Galfimbul 1740487590916.21 GB 0 0 1475357680

00:34

2-Окт-16

Зарубежные фильмы до 2016 ·· Славные парни / The Nice Guys (Шейн Блэк / Shane Black) [2016, США, Великобритания, криминал, комедия, BDRip 1080p] Dub (iTunes) + DVO (Кубик в Кубе) + VO (М.Чадов) + Sub Rus, Eng + Original Eng Galfimbul 1642697994115.3 GB 0 0 1474712958

13:29

24-Сен-16

Зарубежные фильмы до 2016 ·· Славные парни / The Nice Guys (Шейн Блэк / Shane Black) [2016, США, Великобритания, криминал, комедия, BDRip 1080p] Dub (iTunes) + DVO (Кубик в Кубе) + Sub Rus, Eng + Original Eng Galfimbul 1511398724114.08 GB 0 0 1472153773

22:36

25-Авг-16

Зарубежные фильмы до 2016 ·· Славные парни / The Nice Guys (Шейн Блэк / Shane Black) [2016, США, Великобритания, криминал, комедия, BDRemux 1080p] Dub (iTunes) + DVO (Кубик в Кубе) + Sub Rus, Eng + Original Eng Galfimbul 3143667234829.28 GB 0 0 1471944825

12:33

23-Авг-16

Зарубежные фильмы до 2016 ·· Славные парни / The Nice Guys (Шейн Блэк / Shane Black) [2016, США, Великобритания, криминал, комедия, BDRemux 1080p] Dub (iTunes) + Sub Rus, Eng + Original Eng Galfimbul 2817217350726.24 GB 0 0 1471727934

00:18

21-Авг-16

Зарубежные фильмы до 2016 ·· Славные парни / The Nice Guys (Шейн Блэк / Shane Black) [2016, США, Великобритания, криминал, комедия, BDRip 720p] Dub (iTunes) + Sub Rus, Eng + Original Eng Galfimbul 60447033055.63 GB 0 0 1471727929

00:18

21-Авг-16

Зарубежные фильмы до 2016 ·· Славные парни / The Nice Guys (Шейн Блэк / Shane Black) [2016, США, Великобритания, криминал, комедия, BDRemux 1080p] Dub (iTunes) + Original (Eng) + Sub (Eng) Galfimbul 2761845585925.72 GB 0 0 1470990636

11:30

12-Авг-16

Зарубежные фильмы 2016-2019 (Новинки зарубежного кино) ·· Славные парни / The Nice Guys (Шейн Блэк / Shane Black) [2016, США, Криминал, комедия, BDRip-AVC] Dub + Original + Subs (rus, eng) Galfimbul 22071579852.06 GB 0 0 1470915390

14:36

11-Авг-16

Зарубежные фильмы 2016-2019 (Новинки зарубежного кино) ·· Славные парни / The Nice Guys (Шейн Блэк / Shane Black) [2016, США, Великобритания, криминал, комедия, BDRip 720p] iTunes Galfimbul 81654479327.6 GB 0 0 1470706835

04:40

9-Авг-16

Зарубежные фильмы 2016-2019 (Новинки зарубежного кино) ·· Славные парни / The Nice Guys (Шейн Блэк / Shane Black) [2016, США, Великобритания, криминал, комедия, HDRip] iTunes Galfimbul 14694338561.37 GB 0 0 1470546698

08:11

7-Авг-16

Зарубежные фильмы 2016-2019 (Новинки зарубежного кино) ·· Славные парни / The Nice Guys (Шейн Блэк / Shane Black) [2016, США, Великобритания, криминал, комедия, HDRip] iTunes Galfimbul 22112235522.06 GB 0 0 1470546692

08:11

7-Авг-16

Зарубежные фильмы 2016-2019 (Новинки зарубежного кино) ·· Славные парни / The Nice Guys (Шейн Блэк / Shane Black) [2016, США, Великобритания, криминал, комедия, BDRip 720p] iTunes Galfimbul 62015927505.78 GB 0 0 1470546686

08:11

7-Авг-16

Зарубежные фильмы 2016-2019 (Новинки зарубежного кино) ·· Славные парни / The Nice Guys (Шейн Блэк / Shane Black) [2016, США, Великобритания, криминал, комедия, BDRip 1080p] iTunes Galfimbul 97230309809.06 GB 0 0 1470546681

08:11

7-Авг-16

Зарубежные фильмы до 2016 ·· Славные парни / The Nice Guys (Шейн Блэк / Shane Black) [2016, США, Великобритания, криминал, комедия, WEB-DL 1080p] Dub (iTunes) Galfimbul 40013618063.73 GB 0 0 1469967887

15:24

31-Июл-16

Зарубежные фильмы 2016-2019 (Новинки зарубежного кино) ·· Славные парни / The Nice Guys (Шейн Блэк / Shane Black) [2016, США, Криминал, комедия, WEB-DLRip-AVC] Dub (iTunes) Galfimbul 15577883181.45 GB 0 0 1469745007

01:30

29-Июл-16

Зарубежные фильмы 2016-2019 (Новинки зарубежного кино) ·· Славные парни / The Nice Guys (Шейн Блэк / Shane Black) [2016, США, Великобритания, Криминал, комедия, WEB-DL 720] iTunes Galfimbul 36637083203.41 GB 0 0 1469701505

13:25

28-Июл-16

Еще никто не оставлял запись к записи скачать торрент Славные парни The Nice Guys . Будь первым!

!Обратная связь