Скачать через торрент Завод Фильм бесплатно в хорошем качестве torrent

Скачивайте на UnionPeer.org фильмы через торрент без регистрации. Новинки кино в хорошем качестве через торрент. На UnionPeer.org можно скачать через торрент фильмы 2014 и 2015 годов. Самые новые фильмы.

Скачать торрент Завод бесплатно через .torrent фильм мультфильм сериал

Статистика раздачи
Размер:  2.28 GB   |    Зарегистрирован:  9 дней   |    .torrent скачан:  32 раза   |   
Раздают:  1  
   
загрузка...
 
Автор Сообщение

Galfimbul

avatar Galfimbul


Завод



[b]Год выпуска:
2018
Жанр: Боевик, драма, триллер, криминал
Режиссер: Юрий Быков
В ролях: Денис Шведов, Владислав Абашин, Андрей Смоляков, Александр Бухаров, Дмитрий Куличков, Иван Янковский, Юрий Тарасов, Пётр Баранчеев, Александр Воробьёв, Алексей Комашко, Кирилл Полухин, Александр Логинов, Сергей Сосновский, Борис Невзоров, Олег Алмазов, Александр Баширов, Алексей Фаддеев, Илья Соколовский

О фильме: Закрывают градообразующий завод. Владелец предприятия — олигарх Калугин — банкротит его, чтобы заключить выгодную сделку с иностранцами. Несколько тысяч рабочих остаются на улице без средств к существованию. Все смиренно принимают эту участь, и только пятеро отчаянных мужиков решают отстоять свое и взять хозяина в заложники, чтоб требовать с него деньги. Вожак работяг — Седой, воевавший и раненый в горячей точке, — вместе с товарищами вступает в смертельную схватку с опричником олигарха Туманом и его группой спецов за жизнь Калугина. Исход боя решит, кто прав — богатые или бедные.



Страна: Россия, Армения, Франция
Студия: Kinovista, Forever Films Media, Coda, Sharm Holding
Продолжительность: 01:50:43
Перевод: Не требуется | iTunes

Файл
Качество: WEB-DL 720p
Контейнер: MKV
Видео: MPEG-4 AVC, 1280x532, 2509 Кбит/с, 24.000 fps
Аудио: Русский: AC3, 6 ch, 384 Кбит/с - iTunes
Субтитры: Нет
General
Unique ID : 224754196489244556497263011600713474237 (0xA916156E50CCDAB78A7E43D160F960BD)
Complete name : Zavod.2018.WEB-DL.(720p).Getty.mkv
Format : Matroska
Format version : Version 4 / Version 2
File size : 2.28 GiB
Duration : 1 h 50 min
Overall bit rate : 2 952 kb/s
Movie name : Zavod.2018.WEB-DL.(720p).Getty
Encoded date : UTC 2019-03-13 23:30:02
Writing application : mkvmerge v7.8.0 ('River Man') 32bit built on Mar 27 2015 16:18:02
Writing library : libebml v1.3.1 + libmatroska v1.4.2

Video
ID : 1
Format : AVC
Format/Info : Advanced Video Codec
Format profile : High@L4
Format settings, CABAC : Yes
Format settings, RefFrames : 4 frames
Codec ID : V_MPEG4/ISO/AVC
Duration : 1 h 50 min
Bit rate : 2 509 kb/s
Width : 1 280 pixels
Height : 532 pixels
Display aspect ratio : 2.40:1
Frame rate mode : Constant
Frame rate : 24.000 FPS
Color space : YUV
Chroma subsampling : 4:2:0
Bit depth : 8 bits
Scan type : Progressive
Bits/(Pixel*Frame) : 0.154
Stream size : 1.94 GiB (85%)
Default : Yes
Forced : No

Audio
ID : 2
Format : AC-3
Format/Info : Audio Coding 3
Format settings, Endianness : Big
Codec ID : A_AC3
Duration : 1 h 50 min
Bit rate mode : Constant
Bit rate : 384 kb/s
Channel(s) : 6 channels
Channel positions : Front: L C R, Side: L R, LFE
Sampling rate : 48.0 kHz
Frame rate : 31.250 FPS (1536 SPF)
Bit depth : 16 bits
Compression mode : Lossy
Stream size : 304 MiB (13%)
Service kind : Complete Main
Default : Yes
Forced : No
Источник http://BlaTor.org

Трекер:  [ 14-Мар-2019 11:30 ]

  

Скачать .torrent

Размер .torrent файла 12 KB


Размер: 2.28 GB
Хэш (hash) релиза: 1b131046485be4523961164daf6f294ebf547d0d
Подписка на обновления:

Торренты, похожие на Завод скачать торрент

Форум Название Автор Размер S L Добавлен
Российские фильмы 2016-2018 (Новинки русского кино) ·%· Завод (2018) WEB-DLRip-AVC от Files-x | iTunes Galfimbul 15638776021.46 GB 0 0 1552749042

18:10

16-Мар-19

Российские фильмы 2016-2018 (Новинки русского кино) ·%· Завод (2018) WEB-DLRip-AVC от OlLanDGroup | iTunes Galfimbul 18030331091.68 GB 0 0 1552740620

15:50

16-Мар-19

Российские фильмы 2016-2018 (Новинки русского кино) ·%· Завод (2018) WEB-DLRip от GeneralFilm | iTunes Galfimbul 782325760746 MB 0 0 1552689019

01:30

16-Мар-19

Российские фильмы 2016-2018 (Новинки русского кино) ·%· Завод (2018) WEB-DLRip от ExKinoRay | iTunes Galfimbul 15726205381.46 GB 0 0 1552591252

22:20

14-Мар-19

Российские фильмы 2016-2018 (Новинки русского кино) ·%· Завод (2018) WEB-DLRip от OlLanDGroup | iTunes Galfimbul 781658112745 MB 0 0 1552555819

12:30

14-Мар-19

Российские фильмы 2016-2018 (Новинки русского кино) ·%· Завод (2018) WEB-DLRip от MegaPeer | iTunes Galfimbul 15679119361.46 GB 0 0 1552547443

10:10

14-Мар-19

Российские фильмы 2016-2018 (Новинки русского кино) ·%· Завод (2018) WEB-DL 1080p | iTunes Galfimbul 45667590114.25 GB 0 0 1552543862

09:11

14-Мар-19

Российские фильмы 2016-2018 (Новинки русского кино) ·%· Завод (2018) WEB-DLRip | iTunes Galfimbul 22038241282.05 GB 0 0 1552543853

09:10

14-Мар-19

Российские фильмы 2016-2018 (Новинки русского кино) ·%· Завод (2018) WEB-DLRip от Scarabey Galfimbul 781422592745 MB 0 0 1551462656

20:50

1-Мар-19

Российские фильмы 2016-2018 (Новинки русского кино) ·%· Завод (2018) WEBRip от ExKinoRay Galfimbul 15706525681.46 GB 0 0 1551461445

20:30

1-Мар-19

Российские фильмы 2016-2018 (Новинки русского кино) ·%· Завод (2018) WEB-DLRip от Scarabey Galfimbul 15887421441.48 GB 0 0 1551461424

20:30

1-Мар-19

Российские фильмы 2016-2018 (Новинки русского кино) ·%· Завод (2018) WEBRip от GeneralFilm Galfimbul 782186496746 MB 0 0 1551392451

01:20

1-Мар-19

Российские фильмы 2016-2018 (Новинки русского кино) ·%· Завод (2018) WEBRip-AVC от Files-x Galfimbul 15623306861.46 GB 0 0 1551382859

22:40

28-Фев-19

Российские фильмы 2016-2018 (Новинки русского кино) ·%· Завод (2018) WEBRip-AVC Galfimbul 10719504521022 MB 0 0 1551374414

20:20

28-Фев-19

Российские фильмы 2016-2018 (Новинки русского кино) ·%· Завод (2018) WEBRip от Generalfilm | КПК Galfimbul 423527440404 MB 0 0 1551361229

16:40

28-Фев-19

Российские фильмы 2016-2018 (Новинки русского кино) ·%· Завод (2018) WEBRip 720p Galfimbul 36703523303.42 GB 0 0 1551345046

12:10

28-Фев-19

Российские фильмы 2016-2018 (Новинки русского кино) ·%· Завод (2018) WEB-DL 1080p Galfimbul 52891733264.93 GB 0 0 1551336675

09:51

28-Фев-19

Российские фильмы 2016-2018 (Новинки русского кино) ·%· Завод (2019) WEB-DLRip Galfimbul 14720798721.37 GB 0 0 1551336665

09:51

28-Фев-19

Документальные фильмы и телепередачи ·· 360 Авиационный ремонтный завод [2009, Авиация, DVB] Galfimbul 792520699756 MB 0 0 1498335285

23:14

24-Июн-17

Еще никто не оставлял запись к записи скачать торрент Завод . Будь первым!

!Обратная связь