Скачать через торрент Т-34 Фильм бесплатно в хорошем качестве torrent

Скачивайте на UnionPeer.org фильмы через торрент без регистрации. Новинки кино в хорошем качестве через торрент. На UnionPeer.org можно скачать через торрент фильмы 2014 и 2015 годов. Самые новые фильмы.

Скачать торрент Т-34 бесплатно через .torrent фильм мультфильм сериал

Статистика раздачи
Размер:  4.21 GB   |    Зарегистрирован:  5 месяцев 14 дней   |    .torrent скачан:  25 раз   |   
Раздают:  1  
   
загрузка...
 
Автор Сообщение

Galfimbul

avatar Galfimbul


Т-34



[b]Год выхода:
2018
Жанр: драма, военный, приключения
Режиссер: Алексей Сидоров
В ролях: Александр Петров, Виктор Добронравов, Ирина Старшенбаум, Винценц Кифер, Петр Скворцов, Семен Трескунов, Антон Богданов, Василий Уриевский, Василий Буткевич, Ярослав Штефан

О фильме:
Во времена величайших испытаний человечества, когда от каждого действия зависят жизни любимых, два заклятых врага начнут свое противостояние.

Оказавшись в плену, вчерашний курсант Ивушкин планирует дерзкий побег. Он собирает свой экипаж и на легендарной «тридцатьчетверке» бросает вызов немецким танковым асам во главе с Ягером. Ради своей любви и Родины он готов идти до конца.



Страна: Россия
Студия: АМЕДИА, Марс Медиа Энтертейнмент
Продолжительность: 133 мин. / 02:13
Перевод: не требуется

Файл
Кодек: MPEG2
Качество: DVD5 R5
Видео: PAL 16:9 (720x576@1024x576) VBR 3991 Kbps, 25.000 fps
Аудио: Dolby AC3, 6 ch, 48.0 KHz, 448 Kbps
Субтитры: отсутствуют
Формат : MPEG-PS
Размер файла : 1000 Мбайт
Продолжительность : 30 м. 52 с.
Режим общего битрейта : Переменный
Общий поток : 4529 Кбит/сек

Видео
Идентификатор : 224 (0xE0)
Формат : MPEG Video
Версия формата : Version 2
Профиль формата : Main@Main
Настройки формата : CustomMatrix / BVOP
Параметр BVOP формата : Да
Параметр матрицы формата : Выборочная
Параметр GOP формата : M=3, N=15
Продолжительность : 30 м. 52 с.
Вид битрейта : Переменный
Битрейт : 3991 Кбит/сек
Максимальный битрейт : 8000 Кбит/сек
Ширина : 720 пикселей
Высота : 576 пикселей
Соотношение сторон : 16:9
Частота кадров : 25,000 кадров/сек
Стандарт вещания : PAL
Цветовое пространство : YUV
Субдискретизация насыщенности : 4:2:0
Битовая глубина : 8 бит
Тип развёртки : Прогрессивная
Метод сжатия : С потерями
Бит/(Пиксели*Кадры) : 0.385
Временной код первого кадра : 00:00:00:00
Оригинал временного кода : Group of pictures header
GOP, открыто/закрыто : Открыто
GOP, открыто/закрыто на первом кадре : Закрыто
Размер потока : 881 Мбайт (88%)

Аудио
Идентификатор : 189 (0xBD)-128 (0x80)
Формат : AC-3
Формат/Информация : Audio Coding 3
Режим смешивания : DVD-Video
Продолжительность : 30 м. 51 с.
Вид битрейта : Постоянный
Битрейт : 448 Кбит/сек
Каналы : 6 каналов
Расположение каналов : Front: L C R, Side: L R, LFE
Частота : 48,0 КГц
Частота кадров : 31,250 кадров/сек (1536 SPF)
Битовая глубина : 16 бит
Метод сжатия : С потерями
Размер потока : 98,9 Мбайт (10%)

Меню
Источник http://BlaTor.org

Трекер:  [ 03-Апр-2019 00:30 ]

  

Скачать .torrent

Размер .torrent файла 22 KB


Размер: 4.21 GB
Хэш (hash) релиза: 3a73c2ec887c071c81d294a73b875c4737343322
Подписка на обновления:

Торренты, похожие на Т-34 скачать торрент

Форум Название Автор Размер S L Добавлен
Документальные фильмы и телепередачи ·· Т-34: Победа России / T-34: Russian Victory [2001, Документальный фильм, TVRip] Galfimbul 369548378352 MB 0 0 1498328037

21:13

24-Июн-17

Российские фильмы 2016-2018 (Новинки русского кино) ·%· Т-34 (2018) BDRip-AVC от HELLYWOOD | Лицензия Galfimbul 15672736141.46 GB 0 0 1554397870

20:11

4-Апр-19

Российские фильмы 2016-2018 (Новинки русского кино) ·%· Т-34 (2018) BDRip 720p от HELLYWOOD | Лицензия Galfimbul 61845664385.76 GB 0 0 1554347428

06:10

4-Апр-19

Российские фильмы 2016-2018 (Новинки русского кино) ·%· Т-34 (2018) HDRip-AVC | Лицензия Galfimbul 780575608744 MB 0 0 1554315140

21:12

3-Апр-19

Российские фильмы 2016-2018 (Новинки русского кино) ·%· Т-34 (2018) BDRip-HEVC 1080p от HANNIBAL | Лицензия Galfimbul 88834322498.27 GB 0 0 1554227439

20:50

2-Апр-19

Зарубежные фильмы 2016-2018 (Новинки зарубежного кино) ·%· Т-34 (2018) BDRip 720p от k.e.n & MegaPeer | Лицензия Galfimbul 46933009754.37 GB 0 0 1554183611

08:40

2-Апр-19

Российские фильмы 2016-2018 (Новинки русского кино) ·%· Т-34 (2018) HDRip от Portablius | Лицензия Galfimbul 836939776798 MB 0 0 1553940028

13:00

30-Мар-19

Российские фильмы 2016-2018 (Новинки русского кино) ·%· Т-34 (2018) BDRip | Лицензия Galfimbul 23302928782.17 GB 0 0 1553836386

08:13

29-Мар-19

Российские фильмы 2016-2018 (Новинки русского кино) ·%· Т-34 (2018) BDRip 720p | Лицензия Galfimbul 78141022607.28 GB 0 0 1553836372

08:12

29-Мар-19

Российские фильмы 2016-2018 (Новинки русского кино) ·%· Т-34 (2018) WEB-DLRip от Scarabey | iTunes Galfimbul 15546675201.45 GB 0 0 1553016613

20:30

19-Мар-19

Российские фильмы 2016-2018 (Новинки русского кино) ·%· Т-34 (2018) WEB-DLRip от Scarabey | iTunes Galfimbul 836820992798 MB 0 0 1552933221

21:20

18-Мар-19

Российские фильмы 2016-2018 (Новинки русского кино) ·%· Т-34 (2018) WEB-DLRip от Scarabey | iTunes Galfimbul 23354839042.18 GB 0 0 1552929632

20:20

18-Мар-19

Российские фильмы 2016-2018 (Новинки русского кино) ·%· Т-34 (2018) WEB-DLRip-AVC от OlLanDGroup | iTunes Galfimbul 22678821212.11 GB 0 0 1552739453

15:30

16-Мар-19

Российские фильмы 2016-2018 (Новинки русского кино) ·%· Т-34 (2018) WEB-DLRip от MegaPeer | iTunes Galfimbul 15682129921.46 GB 0 0 1552733465

13:51

16-Мар-19

Российские фильмы 2016-2018 (Новинки русского кино) ·%· Т-34 (2018) WEB-DLRip от MegaPeer | iTunes Galfimbul 833902592795 MB 0 0 1552733443

13:50

16-Мар-19

Российские фильмы 2016-2018 (Новинки русского кино) ·%· Т-34 (2018) WEB-DLRip от MegaPeer | iTunes Galfimbul 23438274562.18 GB 0 0 1552724424

11:20

16-Мар-19

Российские фильмы 2016-2018 (Новинки русского кино) ·%· Т-34 (2018) WEB-DL 1080p | iTunes Galfimbul 51369225604.78 GB 0 0 1552696217

03:30

16-Мар-19

Российские фильмы 2016-2018 (Новинки русского кино) ·%· Т-34 (2018) WEBRip 720p Galfimbul 35161833653.27 GB 2 0 1549255811

07:50

4-Фев-19

Российские фильмы 2016-2018 (Новинки русского кино) ·%· Т-34 (2018) WEBRip-AVC Galfimbul 22869815162.13 GB 0 0 1549211411

19:30

3-Фев-19

Еще никто не оставлял запись к записи скачать торрент Т-34 . Будь первым!

!Обратная связь