Скачать через торрент Страшные истории для рассказа в темноте Scary Stories to Tell in the Dark Фильм бесплатно в хорошем качестве torrent

Скачивайте на UnionPeer.org фильмы через торрент без регистрации. Новинки кино в хорошем качестве через торрент. На UnionPeer.org можно скачать через торрент фильмы 2014 и 2015 годов. Самые новые фильмы.

Скачать торрент Страшные истории для рассказа в темноте Scary Stories to Tell in the Dark бесплатно через .torrent фильм мультфильм сериал

Статистика раздачи
Размер:  746 MB   |    Зарегистрирован:  4 года 3 месяца   |    .torrent скачан:  34 раза   |   
Раздают:  1  
 

Скачать Страшные истории для рассказа в темноте / Scary Stories to Tell in the Dark (2019) BDRip-AVC от OlLanDGroup | iTunes через torrent

 
 
Автор Сообщение

Galfimbul

avatar Galfimbul


Страшные истории для рассказа в темноте / Scary Stories to Tell in the Dark
«Экранизация культовой трилогии ужасов»


Год выпуска: 2019
Страна: США, Канада, Китай
Производство: 1212 Entertainment, CBS Films
Жанр: Ужасы, триллер

Режиссёр: Андре Овредал
В ролях: Зои Маргарет Коллетти, Майкл Гарза, Гэбриел Раш, Остин Абрамс, Дин Норрис, Джил Беллоуз, Лоррейн Туссен, Остин Зажур, Натали Гэнзхорн, Кэтлин Поллард

Перевод: Дублированный | [iTunes]
Субтитры: Английские (полные)
Реклама: Отсутствует

Описание: 1968 год. Над Америкой витает ветер перемен... Но не над маленьким городком Милл-Вэлли, где проживало несколько поколений таинственной семьи Беллоу. В их зловещем особняке на краю города мучительная жизнь девочки Сары, хранящей ужасные тайны, превратилась в книжку страшных историй. Спустя время эти жуткие рассказы воплотились в реальность для нескольких подростков, нашедших книгу. «Страшные истории для рассказа в темноте» — экранизация популярной трилогии ужасов Элвина Шварца.



Качество: BDRip-AVC
Продолжительность: 01:47:57

Формат: MKV
Видео кодек: MPEG-4 AVC
Аудио кодек: HE-AAC
Видео: 720x302 (2.40:1), 23.976 fps, x264 ~901 kbps avg, 0.173 bit/pixel
Аудио: 48 kHz, HE-AAC, 2 ch, ~64 kbps avg | RUS (iTunes)
General
Unique ID : 270274067169442288424304537990803768029 (0xCB54E4548F916B35504DFA37FE1842DD)
Complete name : D:OlLanDGroupiTunesScary.Stories.to.Tell.in.the.Dark.2019.BDRip(AVC).745Mb.OllanDGroup.mkv
Format : Matroska
Format version : Version 4
File size : 746 MiB
Duration : 1 h 47 min
Overall bit rate : 966 kb/s
Movie name : Scary.Stories.to.Tell.in.the.Dark.2019.BDRip(AVC).745Mb.OllanDGroup#Skandar#
Encoded date : UTC 2019-10-29 03:39:31
Writing application : mkvmerge v31.0.0 ('Dolores In A Shoestand') 64-bit
Writing library : libebml v1.3.6 + libmatroska v1.4.9

Video
ID : 1
Format : AVC
Format/Info : Advanced Video Codec
Format profile : [email protected]
Format settings : CABAC / 10 Ref Frames
Format settings, CABAC : Yes
Format settings, ReFrames : 10 frames
Codec ID : V_MPEG4/ISO/AVC
Duration : 1 h 47 min
Bit rate : 901 kb/s
Width : 720 pixels
Height : 302 pixels
Display aspect ratio : 2.40:1
Frame rate mode : Constant
Frame rate : 23.976 (24000/1001) FPS
Color space : YUV
Chroma subsampling : 4:2:0
Bit depth : 8 bits
Scan type : Progressive
Bits/(Pixel*Frame) : 0.173
Stream size : 695 MiB (93%)
Title : Scary.Stories.to.Tell.in.the.Dark.2019.BDRip(AVC).745Mb.OllanDGroup#Skandar#
Writing library : x264 core 146 r2538 121396c
Encoding settings : cabac=1 / ref=10 / deblock=1:-3:-3 / analyse=0x3:0x133 / me=umh / subme=11 / psy=1 / psy_rd=0.97:0.05 / mixed_ref=1 / me_range=48 / chroma_me=1 / trellis=2 / 8x8dct=1 / cqm=0 / deadzone=21,11 / fast_pskip=0 / chroma_qp_offset=-3 / threads=6 / lookahead_threads=1 / sliced_threads=0 / nr=0 / decimate=0 / interlaced=0 / bluray_compat=0 / constrained_intra=0 / bframes=11 / b_pyramid=2 / b_adapt=2 / b_bias=0 / direct=3 / weightb=1 / open_gop=0 / weightp=2 / keyint=240 / keyint_min=23 / scenecut=40 / intra_refresh=0 / rc_lookahead=40 / rc=2pass / mbtree=0 / bitrate=901 / ratetol=1.0 / qcomp=0.60 / qpmin=0 / qpmax=69 / qpstep=4 / cplxblur=20.0 / qblur=0.5 / vbv_maxrate=50000 / vbv_bufsize=62500 / nal_hrd=none / filler=0 / ip_ratio=1.40 / pb_ratio=1.30 / aq=1:1.00
Language : Russian
Default : Yes
Forced : No

Audio
ID : 2
Format : AAC LC SBR
Format/Info : Advanced Audio Codec Low Complexity with Spectral Band Replication
Commercial name : HE-AAC
Format settings : Explicit
Codec ID : A_AAC-2
Duration : 1 h 47 min
Bit rate : 64.0 kb/s
Channel(s) : 2 channels
Channel layout : L R
Sampling rate : 48.0 kHz
Frame rate : 23.438 FPS (2048 SPF)
Compression mode : Lossy
Delay relative to video : 31 ms
Stream size : 49.4 MiB (7%)
Title : iTunes
Language : Russian
Default : Yes
Forced : No

Text
ID : 3
Format : UTF-8
Codec ID : S_TEXT/UTF8
Codec ID/Info : UTF-8 Plain Text
Duration : 1 h 39 min
Bit rate : 45 b/s
Count of elements : 1244
Stream size : 32.8 KiB (0%)
Title : Full
Language : English
Default : No
Forced : No

Menu
00:00:00.000 : en:00:00:00.000
00:05:44.386 : en:00:05:44.386
00:13:23.052 : en:00:13:23.052
00:18:52.131 : en:00:18:52.131
00:25:34.741 : en:00:25:34.741
00:28:31.168 : en:00:28:31.168
00:36:17.300 : en:00:36:17.300
00:47:06.282 : en:00:47:06.282
00:54:17.170 : en:00:54:17.170
00:58:36.304 : en:00:58:36.304
01:02:36.377 : en:01:02:36.377
01:11:04.677 : en:01:11:04.677
01:17:59.425 : en:01:17:59.425
01:24:33.902 : en:01:24:33.902
01:29:53.179 : en:01:29:53.179
01:38:30.279 : en:01:38:30.279
Дата премьеры (мир): 7 августа 2019
Дата премьеры (РФ): 8 августа 2019, «Парадиз»
Цифровой релиз:

Релиз от:

Источник http://BlaTor.org

Внимание! AdBlock блокирует показ скриншотов, все вопросы к разработчикам )))
Трекер:  [ 29-Окт-2019 09:00 ]

  

Скачать .torrent

Размер .torrent файла 15 KB


Размер: 746 MB
Хэш (hash) релиза: be24c934f6da7f3ca17ab55e30855d6fd086c5b0
Подписка на обновления:

Торренты, похожие на Страшные истории для рассказа в темноте Scary Stories to Tell in the Dark скачать торрент

Форум Название Автор Размер S L Добавлен
Зарубежные фильмы 2016-2019 (Новинки зарубежного кино) ·%· Страшные истории для рассказа в темноте / Scary Stories to Tell in the Dark (2019) BDRip-HEVC 1080p от HEVC-CLUB | iTunes Galfimbul 51881998314.83 GB 0 0 1572941411

11:10

5-Ноя-19

Зарубежные фильмы 2016-2019 (Новинки зарубежного кино) ·%· Страшные истории для рассказа в темноте / Scary Stories to Tell in the Dark (2019) BDRip | iTunes Galfimbul 23295544942.17 GB 0 0 1572285020

20:50

28-Окт-19

Зарубежные фильмы 2016-2019 (Новинки зарубежного кино) ·%· Страшные истории для рассказа в темноте / Scary Stories to Tell in the Dark (2019) BDRip-AVC от ExKinoRay | iTunes Galfimbul 18823884721.75 GB 0 0 1572219008

02:30

28-Окт-19

Зарубежные фильмы 2016-2019 (Новинки зарубежного кино) ·%· Страшные истории для рассказа в темноте / Scary Stories to Tell in the Dark (2019) BDRip | iTunes Galfimbul 784154624748 MB 0 0 1572213011

00:50

28-Окт-19

Зарубежные фильмы 2016-2019 (Новинки зарубежного кино) ·%· Страшные истории для рассказа в темноте / Scary Stories to Tell in the Dark (2019) BDRip 720p от селезень | iTunes Galfimbul 41455299073.86 GB 0 0 1572189023

18:10

27-Окт-19

Зарубежные фильмы 2016-2019 (Новинки зарубежного кино) ·%· Страшные истории для рассказа в темноте / Scary Stories to Tell in the Dark (2019) BDRip 1080p от селезень | iTunes Galfimbul 78694019187.33 GB 0 0 1572179412

15:30

27-Окт-19

Зарубежные фильмы 2016-2019 (Новинки зарубежного кино) ·%· Страшные истории для рассказа в темноте / Scary Stories to Tell in the Dark (2019) BDRemux 1080p от селезень | iTunes Galfimbul 3072184102928.61 GB 0 0 1572160207

10:10

27-Окт-19

Зарубежные фильмы 2016-2019 (Новинки зарубежного кино) ·%· Страшные истории для рассказа в темноте / Scary Stories to Tell in the Dark (2019) UHD BDRemux 2160p от селезень | 4K | HDR | iTunes Galfimbul 5425620933050.53 GB 0 0 1572094253

15:50

26-Окт-19

Зарубежные фильмы 2016-2019 (Новинки зарубежного кино) ·%· Страшные истории для рассказа в темноте / Scary Stories to Tell in the Dark (2019) WEBRip 720p | iTunes Galfimbul 35529508623.31 GB 0 0 1571754010

17:20

22-Окт-19

Зарубежные фильмы 2016-2019 (Новинки зарубежного кино) ·%· Страшные истории для рассказа в темноте / Scary Stories to Tell in the Dark (2019) WEB-DL 1080p | iTunes Galfimbul 66440077876.19 GB 0 0 1571748010

15:40

22-Окт-19

Зарубежные фильмы 2016-2019 (Новинки зарубежного кино) ·%· Страшные истории для рассказа в темноте / Scary Stories to Tell in the Dark (2019) WEB-DLRip | КПК | iTunes Galfimbul 495202121472 MB 0 0 1570882810

15:20

12-Окт-19

Зарубежные фильмы 2016-2019 (Новинки зарубежного кино) ·%· Страшные истории для рассказа в темноте / Scary Stories to Tell in the Dark (2019) WEB-DLRip от Scarabey | iTunes Galfimbul 16192061441.51 GB 0 0 1570812015

19:40

11-Окт-19

Зарубежные фильмы 2016-2019 (Новинки зарубежного кино) ·%· Страшные истории для рассказа в темноте / Scary Stories to Tell in the Dark (2019) WEB-DLRip-AVC | iTunes Galfimbul 781186380745 MB 0 0 1570719607

18:00

10-Окт-19

Зарубежные фильмы 2016-2019 (Новинки зарубежного кино) ·%· Страшные истории для рассказа в темноте / Scary Stories to Tell in the Dark (2019) WEB-DLRip-AVC от OlLanDGroup | iTunes Galfimbul 17448663101.63 GB 0 0 1570712410

16:00

10-Окт-19

Зарубежные фильмы 2016-2019 (Новинки зарубежного кино) ·%· Страшные истории для рассказа в темноте / Scary Stories to Tell in the Dark (2019) WEB-DLRip от MegaPeer | iTunes Galfimbul 15682027521.46 GB 0 0 1570652445

23:20

9-Окт-19

Зарубежные фильмы 2016-2019 (Новинки зарубежного кино) ·%· Страшные истории для рассказа в темноте / Scary Stories to Tell in the Dark (2019) WEB-DL 1080p от селезень | iTunes Galfimbul 38313604953.57 GB 0 0 1570647607

22:00

9-Окт-19

Еще никто не оставлял запись к записи скачать торрент Страшные истории для рассказа в темноте Scary Stories to Tell in the Dark . Будь первым!

!Обратная связь