Скачать через торрент Закон ночи Live by Night Фильм бесплатно в хорошем качестве torrent

Скачивайте на UnionPeer.org фильмы через торрент без регистрации. Новинки кино в хорошем качестве через торрент. На UnionPeer.org можно скачать через торрент фильмы 2014 и 2015 годов. Самые новые фильмы.

Скачать торрент Закон ночи Live by Night бесплатно через .torrent фильм мультфильм сериал

Статистика раздачи
Размер:  6.03 GB   |    Зарегистрирован:  6 лет 11 месяцев   |    .torrent скачан:  67 раз   |   
Раздают:  1  
 

Скачать Закон ночи / Live by Night (Бен Аффлек / Ben Affleck) [2016, США, драма, криминал, BDRip 720p] Dub (iTunes) + Sub Rus, Eng + Original Eng через torrent

 
 
Автор Сообщение

Galfimbul

avatar Galfimbul


Закон ночи / Live by Night

Страна: США
Студия: Appian Way, МОСФИЛЬМ-мастер, Pearl Street Films, Warner Bros. Pictures
Жанр: драма, криминал
Год выпуска: 2016
Продолжительность: 02:08:52

Перевод: Профессиональный (дублированный) iTunes
Cубтитры: Rus, Eng
Оригинальная аудиодорожка: английский

Режиссер: Бен Аффлек / Ben Affleck

В ролях: Бен Аффлек (Joe Coughlin), Крис Мессина (Dion Bartolo), Зои Салдана (Graciela), Сиенна Миллер (Emma Gould), Крис Купер (Chief Figgis), Эль Фаннинг (Loretta Figgis), Брендан Глисон (Thomas Coughlin), Мигель (Esteban Suarez), Ремо Джироне (Maso Pescatore), Роберт Гленистер (Albert White), Мэттью Мехер (RD Pruitt), Титус Уэлливер (Tim Hickey)

Описание: Действие происходит в Америке времен сухого закона. Главный герой картины, сын полицейского, зарабатывает бутлегерством, в результате чего он оказывается вовлечен в жизнь криминального мира.



Тип релиза: BDRip 720p
Контейнер: MKV

Видео: MPEG-4 AVC, 4800 Кбит/с, 1280x534, 23,976 fps
Аудио: Rus, AC3, 384 kb/s (6 ch), 48 kHz
Аудио 2: Eng, DTS, 1510 kb/s (6 ch), 48 kHz
Формат субтитров: softsub (SRT)
x264 [info]: frame I:1519 Avg QP:11.67 size:118063
x264 [info]: frame P:40545 Avg QP:13.32 size: 48214
x264 [info]: frame B:143322 Avg QP:13.87 size: 17483

Format : Matroska
Format version : Version 4 / Version 2
File size : 6.03 GiB
Duration : 2h 8mn
Overall bit rate : 6 696 Kbps
Movie name : Закон ночи. (Tonik)
Encoded date : UTC 2017-03-12 05:35:52
Writing application : mkvmerge v7.1.0 ('Good Love') 64bit built on Jul 27 2014 13:06:55
Writing library : libebml v1.3.0 + libmatroska v1.4.1
_STATISTICS_WRITING_APP : mkvmerge v7.1.0 ('Good Love') 64bit built on Jul 27 2014 13:06:55
_STATISTICS_WRITING_DATE_UTC : 2017-03-12 05:35:52
_STATISTICS_TAGS : BPS DURATION NUMBER_OF_FRAMES NUMBER_OF_BYTES
DURATION : 02:03:28.500000000
NUMBER_OF_FRAMES : 1898
NUMBER_OF_BYTES : 61745

Video
ID : 1
Format : AVC
Format/Info : Advanced Video Codec
Format profile : [email protected]
Format settings, CABAC : Yes
Format settings, ReFrames : 12 frames
Codec ID : V_MPEG4/ISO/AVC
Duration : 2h 8mn
Bit rate : 4 800 Kbps
Width : 1 280 pixels
Height : 534 pixels
Display aspect ratio : 2.40:1
Frame rate mode : Constant
Frame rate : 23.976 fps
Color space : YUV
Chroma subsampling : 4:2:0
Bit depth : 8 bits
Scan type : Progressive
Bits/(Pixel*Frame) : 0.293
Stream size : 4.20 GiB (70%)
Writing library : x264 core 148 r2665kMod a01e339
Encoding settings : cabac=1 / ref=12 / deblock=1:-3:-3 / analyse=0x3:0x133 / me=umh / subme=11 / psy=1 / fade_compensate=0.00 / psy_rd=1.05:0.00 / mixed_ref=1 / me_range=32 / chroma_me=1 / trellis=2 / 8x8dct=1 / cqm=0 / deadzone=21,11 / fast_pskip=0 / chroma_qp_offset=-2 / threads=6 / lookahead_threads=1 / sliced_threads=0 / nr=0 / decimate=0 / interlaced=0 / bluray_compat=0 / constrained_intra=0 / fgo=0 / bframes=8 / b_pyramid=2 / b_adapt=2 / b_bias=0 / direct=3 / weightb=1 / open_gop=0 / weightp=2 / keyint=240 / keyint_min=24 / scenecut=40 / intra_refresh=0 / rc=2pass / mbtree=0 / bitrate=4800 / ratetol=1.0 / qcomp=0.70 / qpmin=0 / qpmax=69 / qpstep=4 / cplxblur=20.0 / qblur=0.5 / ip_ratio=1.20 / pb_ratio=1.20 / aq=3:0.85
Language : English
Default : Yes
Forced : No
_STATISTICS_WRITING_APP : mkvmerge v7.1.0 ('Good Love') 64bit built on Jul 27 2014 13:06:55
_STATISTICS_WRITING_DATE_UTC : 2017-03-12 05:35:52
_STATISTICS_TAGS : BPS DURATION NUMBER_OF_FRAMES NUMBER_OF_BYTES
DURATION : 02:08:52.141000000
NUMBER_OF_FRAMES : 185386
NUMBER_OF_BYTES : 4639842757

Audio #1
ID : 2
Format : AC-3
Format/Info : Audio Coding 3
Mode extension : CM (complete main)
Format settings, Endianness : Big
Codec ID : A_AC3
Duration : 2h 8mn
Bit rate mode : Constant
Bit rate : 384 Kbps
Channel(s) : 6 channels
Channel positions : Front: L C R, Side: L R, LFE
Sampling rate : 48.0 KHz
Bit depth : 16 bits
Compression mode : Lossy
Stream size : 354 MiB (6%)
Title : iTunes
Language : Russian
Default : Yes
Forced : No

Audio #2
ID : 3
Format : DTS
Format/Info : Digital Theater Systems
Mode : 16
Format settings, Endianness : Big
Codec ID : A_DTS
Duration : 2h 8mn
Bit rate mode : Constant
Bit rate : 1 509 Kbps
Channel(s) : 6 channels
Channel positions : Front: L C R, Side: L R, LFE
Sampling rate : 48.0 KHz
Bit depth : 16 bits
Compression mode : Lossy
Stream size : 1.36 GiB (23%)
Language : English
Default : No
Forced : No

Text #1
ID : 4
Format : UTF-8
Codec ID : S_TEXT/UTF8
Codec ID/Info : UTF-8 Plain Text
Title : Forced
Language : Russian
Default : Yes
Forced : No

Text #2
ID : 5
Format : UTF-8
Codec ID : S_TEXT/UTF8
Codec ID/Info : UTF-8 Plain Text
Language : Russian
Default : No
Forced : No

Text #3
ID : 6
Format : UTF-8
Codec ID : S_TEXT/UTF8
Codec ID/Info : UTF-8 Plain Text
Title : Full
Language : English
Default : No
Forced : No

Menu
00:00:00.000 : en:00:00:00.000
00:11:12.797 : en:00:11:12.797
00:20:26.267 : en:00:20:26.267
00:33:14.659 : en:00:33:14.659
00:43:34.070 : en:00:43:34.070
00:52:53.087 : en:00:52:53.087
01:02:26.534 : en:01:02:26.534
01:12:47.530 : en:01:12:47.530
01:24:12.714 : en:01:24:12.714
01:34:19.863 : en:01:34:19.863
01:38:15.723 : en:01:38:15.723
01:48:57.948 : en:01:48:57.948
01:53:29.970 : en:01:53:29.970
02:01:57.143 : en:02:01:57.143


Внимание! AdBlock блокирует показ скриншотов, все вопросы к разработчикам )))
Трекер:  [ 24-Мар-2017 20:30 ]

  

Скачать .torrent

Размер .torrent файла 15 KB


Размер: 6.03 GB
Хэш (hash) релиза: a2ed9c49a6e54a4ccd4d7f3e4c0f22a9d208fe5b
Подписка на обновления:

Торренты, похожие на Закон ночи Live by Night скачать торрент

Форум Название Автор Размер S L Добавлен
Зарубежные фильмы 2016-2019 (Новинки зарубежного кино) ·%· Закон ночи / Live by Night (2016) BDRip 1080p от New-Team & qqss44 | Лицензия Galfimbul 72916543496.79 GB 0 0 1570945833

08:50

13-Окт-19

Зарубежные фильмы 2016-2019 (Новинки зарубежного кино) ·%· Закон ночи / Live by Night (2016) WEB-DLRip-AVC | D | Open Matte Galfimbul 11618909161.08 GB 0 0 1557400814

14:20

9-Май-19

Зарубежные фильмы 2016-2019 (Новинки зарубежного кино) ·%· Закон ночи / Live by Night (2016) WEB-DL 1080p | D Galfimbul 51292156014.78 GB 0 0 1553172611

15:50

21-Мар-19

Зарубежные фильмы 2016-2019 (Новинки зарубежного кино) ·%· Закон ночи / Live by Night (2016) BDRip 1080p | D, A Galfimbul 93488197038.71 GB 0 0 1530367900

17:11

30-Июн-18

Зарубежные фильмы 2016-2019 (Новинки зарубежного кино) ·%· Закон ночи / Live by Night (2016) BDRemux | D, A Galfimbul 3126798794429.12 GB 0 0 1530080413

09:20

27-Июн-18

Зарубежные фильмы до 2016 ·· Закон ночи / Live by Night (Бен Аффлек / Ben Affleck) [2016, США, боевик, триллер, драма, криминал, BD>DVD9 (Custom)] DUB + Sub Rus / Eng + Original Eng Galfimbul 83771781127.8 GB 0 0 1511098609

16:36

19-Ноя-17

Зарубежные фильмы до 2016 ·· Закон ночи / Live by Night (Бен Аффлек / Ben Affleck) [2016, США, Драма, криминал, DVD5 (сжатый)] исх. R2, Dub + Sub Rus + Original Eng Galfimbul 46867824644.36 GB 0 0 1501142775

11:06

27-Июл-17

Зарубежные фильмы до 2016 ·· Закон ночи / Live by Night (Бен Аффлек / Ben Affleck) [2016, США, Гангстерская драма, DVD9] Dub + Sub Rus + Original Eng Galfimbul 68364792056.37 GB 0 0 1500735976

18:06

22-Июл-17

Трейлеры и дополнительные материалы ·· Закон Ночи / Live by Night (Бен Аффлек / Ben Affleck) [2016, Драма | Криминал, BDRip 720p] дополнительные материалы Galfimbul 15050446781.4 GB 0 0 1493800090

11:28

3-Май-17

Зарубежные фильмы 2016-2019 (Новинки зарубежного кино) ·· Закон ночи / Live by Night (Бен Аффлек / Ben Affleck) [2016, США, драма, криминал, Blu-ray 1080p] Лицензия Galfimbul 4503820108341.95 GB 0 0 1491545801

09:16

7-Апр-17

Зарубежные фильмы до 2016 ·· Закон ночи / Live by Night (Бен Аффлек / Ben Affleck) [2016, США, драма, криминал, Blu-ray disc 1080p] Dub (CEE) + Sub Rus, Eng + Original Eng Galfimbul 4503820108341.95 GB 0 0 1491544170

08:49

7-Апр-17

Зарубежные фильмы до 2016 ·· Закон ночи / Live by Night (Бен Аффлек / Ben Affleck) [2016, США, драма, криминал, BDRip 1080p] Dub (Blu-Ray CEE) + Sub Rus, Eng + Original Eng Galfimbul 1621871403815.1 GB 0 0 1491472195

12:49

6-Апр-17

Зарубежные фильмы 2016-2019 (Новинки зарубежного кино) ·· Закон ночи / Live by Night (Бен Аффлек / Ben Affleck) [2016, США, драма, криминал, BDRip 720p] Лицензия Galfimbul 85261271397.94 GB 0 0 1491464677

10:44

6-Апр-17

Зарубежные фильмы 2016-2019 (Новинки зарубежного кино) ·· Закон ночи / Live by Night (Бен Аффлек / Ben Affleck) [2016, США, драма, криминал, BDRip 1080p] Лицензия Galfimbul 1621968970915.11 GB 0 0 1491464670

10:44

6-Апр-17

Зарубежные фильмы до 2016 ·· Закон ночи / Live by Night (Бен Аффлек / Ben Affleck) [2016, США, драма, криминал, BDRip 1080p] Dub (iTunes) + Sub Rus, Eng + Original Eng Galfimbul 100230091739.33 GB 0 0 1490380750

21:39

24-Мар-17

Зарубежные фильмы 2016-2019 (Новинки зарубежного кино) ·· Закон ночи / Live by Night (Бен Аффлек / Ben Affleck) [2016, США, драма, криминал, BDRip-AVC] Dub + Original + Sub (rus, eng) Galfimbul 21632043832.01 GB 0 0 1489526875

00:27

15-Мар-17

Зарубежные фильмы 2016-2019 (Новинки зарубежного кино) ·· Закон ночи / Live by Night (Бен Аффлек / Ben Affleck) [2016, США, Драма, криминал, WEB-DLRip] Dub (iTunes) Galfimbul 15744901121.47 GB 0 0 1489488921

13:55

14-Мар-17

Зарубежные фильмы 2016-2019 (Новинки зарубежного кино) ·· Закон ночи / Live by Night (Бен Аффлек / Ben Affleck) [2016, США, драма, криминал, WEB-DLRip-AVC] Dub + Original + Sub (rus, eng) Galfimbul 22781077802.12 GB 0 0 1489488907

13:55

14-Мар-17

Зарубежные фильмы 2016-2019 (Новинки зарубежного кино) ·· Закон ночи / Live by Night (Бен Аффлек / Ben Affleck) [2016, США, драма, криминал, WEB-DLRip-AVC] Dub + Sub (rus) Galfimbul 16175253741.51 GB 0 0 1489488900

13:55

14-Мар-17

Еще никто не оставлял запись к записи скачать торрент Закон ночи Live by Night . Будь первым!

!Обратная связь