Скачать через торрент Закон ночи Live by Night Фильм бесплатно в хорошем качестве torrent

Скачивайте на UnionPeer.org фильмы через торрент без регистрации. Новинки кино в хорошем качестве через торрент. На UnionPeer.org можно скачать через торрент фильмы 2014 и 2015 годов. Самые новые фильмы.

Скачать торрент Закон ночи Live by Night бесплатно через .torrent фильм мультфильм сериал

Статистика раздачи
Размер:  15.1 GB   |    Зарегистрирован:  6 лет 10 месяцев   |    .torrent скачан:  35 раз   |   
Раздают:  1  
 

Скачать Закон ночи / Live by Night (Бен Аффлек / Ben Affleck) [2016, США, драма, криминал, BDRip 1080p] Dub (Blu-Ray CEE) + Sub Rus, Eng + Original Eng через torrent

 
 
Автор Сообщение

Galfimbul

avatar Galfimbul


Закон ночи / Live by Night

Страна: США
Студия: Appian Way, МОСФИЛЬМ-мастер, Pearl Street Films, Warner Bros. Pictures
Жанр: драма, криминал
Год выпуска: 2016
Продолжительность: 02:08:49

Перевод: Профессиональный (дублированный) Blu-Ray CEE
Cубтитры: Русские, Украинские, Английские
Оригинальная аудиодорожка: английский

Режиссер: Бен Аффлек / Ben Affleck

В ролях: Бен Аффлек, Крис Мессина, Зои Салдана, Сиенна Миллер, Крис Купер, Эль Фаннинг, Брендан Глисон, Мигель, Ремо Джироне, Роберт Гленистер

Описание: Действие происходит в Америке времен сухого закона. Главный герой картины, сын полицейского, зарабатывает бутлегерством, в результате чего он оказывается вовлечен в жизнь криминального мира.

<div class="post-box">Скачать сэмпл</div>

Тип релиза: BDRip 1080p
Контейнер: MKV

Видео: MPEG-4 AVC, 14,5 Мбит/с, 1920x800, 23,976 fps
Aудио 1: Russian: 48 kHz, AC3, 3/2 (L,C,R,l,r) + LFE ch, ~448.00 kbps avg |Дубляж, Blu-ray CEE|
Aудио 2: Ukrainian: 44.1 kHz, AAC, 2/0 (L,R) ch, ~128.00 kbps avg |Дубляж, iTunes Russia|
Аудио 3: English: 48 kHz, DTS, 3/2 (L,C,R,l,r) + LFE ch, ~1536.00 kbps avg
Aудио 4: English: 48 kHz, AC3, 2/0 (L,R) ch, ~192.00 kbps avg |Commentary with Director Ben Affleck, Director of Photography Robert Richardson and Production Designer Jess Gonchor|
ОбщееУникальный идентификатор : 245632362276476325810764047455455225666 (0xB8CB127A830EE5029405D580157B2742)Полное имя : Live.by.Night.2016.BDRip.1080p.Secrets.mkvФормат : MatroskaВерсия формата : Version 4 / Version 2Размер файла : 15,1 ГбайтПродолжительность : 2 ч. 8 м.Общий поток : 16,8 Мбит/секНазвание фильма : Live by Night - Release for Rutracker.org by SecretsДата кодирования : UTC 2017-04-06 13:14:38Программа кодирования : mkvmerge v10.0.0 ('To Drown In You') 64bitБиблиотека кодирования : libebml v1.3.4 + libmatroska v1.4.5

ВидеоИдентификатор : 1Формат : AVCФормат/Информация : Advanced Video CodecПрофиль формата : [email protected]Параметр CABAC формата : ДаПараметр ReFrames формата : 5 кадровИдентификатор кодека : V_MPEG4/ISO/AVCПродолжительность : 2 ч. 8 м.Битрейт : 14,5 Мбит/секШирина : 1920 пикселейВысота : 800 пикселейСоотношение сторон : 2,40:1Режим частоты кадров : ПостоянныйЧастота кадров : 23,976 (24000/1001) кадра/секЦветовое пространство : YUVСубдискретизация насыщенности : 4:2:0Битовая глубина : 8 битТип развёртки : ПрогрессивнаяБит/(Пиксели*Кадры) : 0.394Размер потока : 13,1 Гбайт (86%)Заголовок : Live by Night - Release for Rutracker.org by SecretsБиблиотека кодирования : x264 core 148 r2705+54 9f484c1 t_mod_Custom [8-bit@all X86_64]Настройки программы : cabac=1 / ref=5 / deblock=1:-3:-3 / analyse=0x3:0x133 / me=umh / subme=11 / psy=1 / fade_compensate=0.00 / psy_rd=1.05:0.00 / mixed_ref=1 / me_range=32 / chroma_me=1 / trellis=2 / 8x8dct=1 / cqm=0 / deadzone=21,11 / fast_pskip=0 / chroma_qp_offset=-2 / threads=12 / lookahead_threads=3 / sliced_threads=0 / nr=0 / decimate=0 / interlaced=0 / bluray_compat=0 / constrained_intra=0 / fgo=0 / bframes=11 / b_pyramid=2 / b_adapt=2 / b_bias=0 / direct=3 / weightb=1 / open_gop=0 / weightp=2 / keyint=250 / keyint_min=23 / scenecut=40 / intra_refresh=0 / rc_lookahead=60 / rc=crf / mbtree=0 / crf=15.0000 / qcomp=0.65 / qpmin=0:0:0 / qpmax=69:69:69 / qpstep=4 / vbv_maxrate=62500 / vbv_bufsize=78125 / crf_max=0.0 / nal_hrd=none / filler=0 / ip_ratio=1.30 / pb_ratio=1.20 / aq=3:0.75 / aq-sensitivity=10.00 / aq-factor=1.00:1.00:1.00 / aq2=0 / aq3=0 / zones=6080,6358,crf=13/8675,9219,crf=13/14855,16130,crf=13/36874,36931,crf=12/43958,44097,crf=12.5/52800,52900,crf=12/100126,100204,crf=12.5/100256,100290,crf=12.5/101124,101213,crf=12/101269,101420,crf=12/101504,101570,crf=12/101730,101875,crf=12/102105,102189,crf=12/102253,102315,crf=12/102618,102682,crf=12/112063,113484,crf=12/124497,124969,crf=13/124970,125489,crf=12/152027,152423,crf=12/154127,154247,crf=12.5/155271,155416,crf=12.5/179050,185120,b=0.2Язык : EnglishDefault : ДаForced : НетЦветовой диапазон : LimitedКоэффициенты матрицы : BT.709

Аудио #1Идентификатор : 2Формат : AC-3Формат/Информация : Audio Coding 3Расширение режима : CM (complete main)Параметр Endianness формата : BigИдентификатор кодека : A_AC3Продолжительность : 2 ч. 8 м.Вид битрейта : ПостоянныйБитрейт : 448 Кбит/секКаналы : 6 каналовРасположение каналов : Front: L C R, Side: L R, LFEЧастота : 48,0 КГцЧастота кадров : 31,250 кадров/сек (1536 spf)Метод сжатия : С потерямиРазмер потока : 413 Мбайт (3%)Заголовок : Blu-Ray CEEЯзык : RussianDefault : ДаForced : Нет

Аудио #2Идентификатор : 3Формат : AACФормат/Информация : Advanced Audio CodecПрофиль формата : LCИдентификатор кодека : A_AACПродолжительность : 2 ч. 8 м.Битрейт : 125 Кбит/секКаналы : 2 каналаРасположение каналов : Front: L RЧастота : 44,1 КГцЧастота кадров : 43,066 кадра/сек (1024 spf)Метод сжатия : С потерямиРазмер потока : 115 Мбайт (1%)Заголовок : iTunesЯзык : UkrainianDefault : НетForced : Нет

Аудио #3Идентификатор : 4Формат : DTSФормат/Информация : Digital Theater SystemsРежим : 16Параметр Endianness формата : BigИдентификатор кодека : A_DTSПродолжительность : 2 ч. 8 м.Вид битрейта : ПостоянныйБитрейт : 1509 Кбит/секКаналы : 6 каналовРасположение каналов : Front: L C R, Side: L R, LFEЧастота : 48,0 КГцЧастота кадров : 93,750 кадра/сек (512 spf)Битовая глубина : 24 битМетод сжатия : С потерямиРазмер потока : 1,36 Гбайт (9%)Язык : EnglishDefault : НетForced : Нет

Аудио #4Идентификатор : 5Формат : AC-3Формат/Информация : Audio Coding 3Профиль формата : Dolby DigitalРасширение режима : CM (complete main)Параметр Endianness формата : BigИдентификатор кодека : A_AC3Продолжительность : 2 ч. 8 м.Вид битрейта : ПостоянныйБитрейт : 192 Кбит/секКаналы : 2 каналаРасположение каналов : Front: L RЧастота : 48,0 КГцЧастота кадров : 31,250 кадров/сек (1536 spf)Метод сжатия : С потерямиРазмер потока : 177 Мбайт (1%)Заголовок : Commentary with Director Ben Affleck, Director of Photography Robert Richardson and Production Designer Jess GonchorЯзык : EnglishDefault : НетForced : Нет

Текст #1Идентификатор : 6Формат : UTF-8Идентификатор кодека : S_TEXT/UTF8Идентификатор кодека/Информация : UTF-8 Plain TextПродолжительность : 1 ч. 57 м.Битрейт : 1 бит/секCount of elements : 25Размер потока : 1019 байт (0%)Заголовок : ForcedЯзык : RussianDefault : ДаForced : Нет

Текст #2Идентификатор : 7Формат : UTF-8Идентификатор кодека : S_TEXT/UTF8Идентификатор кодека/Информация : UTF-8 Plain TextПродолжительность : 2 ч. 8 м.Битрейт : 98 бит/секCount of elements : 1623Размер потока : 92,1 Кбайт (0%)Язык : RussianDefault : НетForced : Нет

Текст #3Идентификатор : 8Формат : UTF-8Идентификатор кодека : S_TEXT/UTF8Идентификатор кодека/Информация : UTF-8 Plain TextПродолжительность : 1 ч. 49 м.Битрейт : 1 бит/секCount of elements : 24Размер потока : 935 байт (0%)Заголовок : ForcedЯзык : UkrainianDefault : НетForced : Нет

Текст #4Идентификатор : 9Формат : UTF-8Идентификатор кодека : S_TEXT/UTF8Идентификатор кодека/Информация : UTF-8 Plain TextПродолжительность : 2 ч. 0 м.Битрейт : 59 бит/секCount of elements : 1596Размер потока : 53,0 Кбайт (0%)Язык : EnglishDefault : НетForced : Нет

Текст #5Идентификатор : 10Формат : UTF-8Идентификатор кодека : S_TEXT/UTF8Идентификатор кодека/Информация : UTF-8 Plain TextПродолжительность : 2 ч. 1 м.Битрейт : 63 бит/секCount of elements : 1748Размер потока : 56,3 Кбайт (0%)Заголовок : SDHЯзык : EnglishDefault : НетForced : Нет

Меню00:00:00.000 : en:00:00:00.00000:11:12.797 : en:00:11:12.79700:20:26.267 : en:00:20:26.26700:33:14.659 : en:00:33:14.65900:43:34.070 : en:00:43:34.07000:52:53.087 : en:00:52:53.08701:02:26.534 : en:01:02:26.53401:12:47.530 : en:01:12:47.53001:24:12.714 : en:01:24:12.71401:34:19.863 : en:01:34:19.86301:38:15.723 : en:01:38:15.72301:48:57.948 : en:01:48:57.94801:53:29.970 : en:01:53:29.97002:01:57.143 : en:02:01:57.143


Внимание! AdBlock блокирует показ скриншотов, все вопросы к разработчикам )))
Трекер:  [ 06-Апр-2017 12:00 ]

  

Скачать .torrent

Размер .torrent файла 38 KB


Размер: 15.1 GB
Хэш (hash) релиза: 3de28fc00c39302c980c725563028bc8c59c1312
Подписка на обновления:

Торренты, похожие на Закон ночи Live by Night скачать торрент

Форум Название Автор Размер S L Добавлен
Зарубежные фильмы 2016-2019 (Новинки зарубежного кино) ·%· Закон ночи / Live by Night (2016) BDRip 1080p от New-Team & qqss44 | Лицензия Galfimbul 72916543496.79 GB 0 0 1570945833

08:50

13-Окт-19

Зарубежные фильмы 2016-2019 (Новинки зарубежного кино) ·%· Закон ночи / Live by Night (2016) WEB-DLRip-AVC | D | Open Matte Galfimbul 11618909161.08 GB 0 0 1557400814

14:20

9-Май-19

Зарубежные фильмы 2016-2019 (Новинки зарубежного кино) ·%· Закон ночи / Live by Night (2016) WEB-DL 1080p | D Galfimbul 51292156014.78 GB 0 0 1553172611

15:50

21-Мар-19

Зарубежные фильмы 2016-2019 (Новинки зарубежного кино) ·%· Закон ночи / Live by Night (2016) BDRip 1080p | D, A Galfimbul 93488197038.71 GB 0 0 1530367900

17:11

30-Июн-18

Зарубежные фильмы 2016-2019 (Новинки зарубежного кино) ·%· Закон ночи / Live by Night (2016) BDRemux | D, A Galfimbul 3126798794429.12 GB 0 0 1530080413

09:20

27-Июн-18

Зарубежные фильмы до 2016 ·· Закон ночи / Live by Night (Бен Аффлек / Ben Affleck) [2016, США, боевик, триллер, драма, криминал, BD>DVD9 (Custom)] DUB + Sub Rus / Eng + Original Eng Galfimbul 83771781127.8 GB 0 0 1511098609

16:36

19-Ноя-17

Зарубежные фильмы до 2016 ·· Закон ночи / Live by Night (Бен Аффлек / Ben Affleck) [2016, США, Драма, криминал, DVD5 (сжатый)] исх. R2, Dub + Sub Rus + Original Eng Galfimbul 46867824644.36 GB 0 0 1501142775

11:06

27-Июл-17

Зарубежные фильмы до 2016 ·· Закон ночи / Live by Night (Бен Аффлек / Ben Affleck) [2016, США, Гангстерская драма, DVD9] Dub + Sub Rus + Original Eng Galfimbul 68364792056.37 GB 0 0 1500735976

18:06

22-Июл-17

Трейлеры и дополнительные материалы ·· Закон Ночи / Live by Night (Бен Аффлек / Ben Affleck) [2016, Драма | Криминал, BDRip 720p] дополнительные материалы Galfimbul 15050446781.4 GB 0 0 1493800090

11:28

3-Май-17

Зарубежные фильмы 2016-2019 (Новинки зарубежного кино) ·· Закон ночи / Live by Night (Бен Аффлек / Ben Affleck) [2016, США, драма, криминал, Blu-ray 1080p] Лицензия Galfimbul 4503820108341.95 GB 0 0 1491545801

09:16

7-Апр-17

Зарубежные фильмы до 2016 ·· Закон ночи / Live by Night (Бен Аффлек / Ben Affleck) [2016, США, драма, криминал, Blu-ray disc 1080p] Dub (CEE) + Sub Rus, Eng + Original Eng Galfimbul 4503820108341.95 GB 1 2 1491544170

08:49

7-Апр-17

Зарубежные фильмы 2016-2019 (Новинки зарубежного кино) ·· Закон ночи / Live by Night (Бен Аффлек / Ben Affleck) [2016, США, драма, криминал, BDRip 720p] Лицензия Galfimbul 85261271397.94 GB 0 0 1491464677

10:44

6-Апр-17

Зарубежные фильмы 2016-2019 (Новинки зарубежного кино) ·· Закон ночи / Live by Night (Бен Аффлек / Ben Affleck) [2016, США, драма, криминал, BDRip 1080p] Лицензия Galfimbul 1621968970915.11 GB 0 0 1491464670

10:44

6-Апр-17

Зарубежные фильмы до 2016 ·· Закон ночи / Live by Night (Бен Аффлек / Ben Affleck) [2016, США, драма, криминал, BDRip 720p] Dub (iTunes) + Sub Rus, Eng + Original Eng Galfimbul 64721499596.03 GB 0 0 1490380756

21:39

24-Мар-17

Зарубежные фильмы до 2016 ·· Закон ночи / Live by Night (Бен Аффлек / Ben Affleck) [2016, США, драма, криминал, BDRip 1080p] Dub (iTunes) + Sub Rus, Eng + Original Eng Galfimbul 100230091739.33 GB 0 0 1490380750

21:39

24-Мар-17

Зарубежные фильмы 2016-2019 (Новинки зарубежного кино) ·· Закон ночи / Live by Night (Бен Аффлек / Ben Affleck) [2016, США, драма, криминал, BDRip-AVC] Dub + Original + Sub (rus, eng) Galfimbul 21632043832.01 GB 0 0 1489526875

00:27

15-Мар-17

Зарубежные фильмы 2016-2019 (Новинки зарубежного кино) ·· Закон ночи / Live by Night (Бен Аффлек / Ben Affleck) [2016, США, Драма, криминал, WEB-DLRip] Dub (iTunes) Galfimbul 15744901121.47 GB 0 0 1489488921

13:55

14-Мар-17

Зарубежные фильмы 2016-2019 (Новинки зарубежного кино) ·· Закон ночи / Live by Night (Бен Аффлек / Ben Affleck) [2016, США, драма, криминал, WEB-DLRip-AVC] Dub + Original + Sub (rus, eng) Galfimbul 22781077802.12 GB 0 0 1489488907

13:55

14-Мар-17

Зарубежные фильмы 2016-2019 (Новинки зарубежного кино) ·· Закон ночи / Live by Night (Бен Аффлек / Ben Affleck) [2016, США, драма, криминал, WEB-DLRip-AVC] Dub + Sub (rus) Galfimbul 16175253741.51 GB 0 0 1489488900

13:55

14-Мар-17

Еще никто не оставлял запись к записи скачать торрент Закон ночи Live by Night . Будь первым!

!Обратная связь