Скачать через торрент Закон ночи Live by Night Фильм бесплатно в хорошем качестве torrent

Скачивайте на UnionPeer.org фильмы через торрент без регистрации. Новинки кино в хорошем качестве через торрент. На UnionPeer.org можно скачать через торрент фильмы 2014 и 2015 годов. Самые новые фильмы.

Скачать торрент Закон ночи Live by Night бесплатно через .torrent фильм мультфильм сериал

Статистика раздачи
Размер:  6.79 GB   |    Зарегистрирован:  4 года 4 месяца   |    .torrent скачан:  18 раз   |   
Раздают:  1  
 

Скачать Закон ночи / Live by Night (2016) BDRip 1080p от New-Team & qqss44 | Лицензия через torrent

 
 
Автор Сообщение

Galfimbul

avatar Galfimbul



Анонсы 1080p от qqss44

? Закон ночи ?


? ?
? Год выхода: 2016
? Название: Закон ночи
? Жанр: Драма, криминал
? Оригинальное название: Live by Night
? Режиссер: Бен Аффлек
? В ролях: Бен Аффлек, Элль Фэннинг, Ремо Джироне, Брендан Глисон, Роберт Гленистер, Мэттью Мехер, Крис Мессина, Сиенна Миллер, Мигель, Зои Салдана

? Описание фильма ?
Действие происходит в Америке времен сухого закона. Главный герой картины, сын полицейского, зарабатывает бутлегерством, в результате чего он оказывается вовлечен в жизнь криминального мира.



? Выпущено: США
? Продолжительность: 02:08:52
? Перевод: дублированный - || Лицензия ||



? Информация о файле ?
? Формат:| MKV | x264 |
? Качество: BDRip 1080p
? Видео: X264/MPEG4-AVC | 1920x800 (2.40:1) | ~6500 kbps | 23,976 fps
? Аудио Rus: AC3 | 48 KHz | 5.1 (Front: L С R Side: L R) + LFE | ~448 kbps
? Аудио Eng: AC3 | 48 KHz | 5.1 (Front: L С R Side: L R) + LFE | ~640 kbps
? Субтитры: || русские. (форс. и полные) || английские. (полные) ||
x264 [info]: frame I:1396 Avg QP:12.35 size:234386
x264 [info]: frame P:41322 Avg QP:15.25 size: 72596
x264 [info]: frame B:142667 Avg QP:16.96 size: 20403

Общее
Уникальный идентификатор : 201601329275585026079723230221335721858 (0x97AB00F1B2930D8B91FDE21F96A6F782)
Полное имя : X:ATorrentLive.by.Night.2016.BDRip.1080p.(qqss44).mkv
Формат : Matroska
Версия формата : Version 2
Размер файла : 6,79 Гбайт
Продолжительность : 2 ч. 8 м.
Общий поток : 7544 Кбит/сек
Название фильма : Live.by.Night.2016.BDRip.1080p.(qqss44)
Дата кодирования : UTC 2017-04-06 08:56:26
Программа кодирования : mkvmerge v5.8.0 ('No Sleep / Pillow') built on Sep 2 2012 15:37:04
Библиотека кодирования : libebml v1.2.3 + libmatroska v1.3.0

Видео
Идентификатор : 1
Формат : AVC
Формат/Информация : Advanced Video Codec
Профиль формата : [email protected]
Параметр CABAC формата : Да
Параметр ReFrames формата : 5 кадров
Идентификатор кодека : V_MPEG4/ISO/AVC
Продолжительность : 2 ч. 8 м.
Битрейт : 6455 Кбит/сек
Ширина : 1920 пикселей
Высота : 800 пикселей
Соотношение сторон : 2,40:1
Режим частоты кадров : Постоянный
Частота кадров : 23,976 (24000/1001) кадра/сек
Цветовое пространство : YUV
Субдискретизация насыщенности : 4:2:0
Битовая глубина : 8 бит
Тип развёртки : Прогрессивная
Бит/(Пиксели*Кадры) : 0.175
Размер потока : 5,68 Гбайт (84%)
Заголовок : Live.by.Night.2016.BDRip.1080p.(qqss44)
Библиотека кодирования : x264 core 148 r2744kMod b97ae06
Настройки программы : cabac=1 / ref=5 / deblock=1:-3:-3 / analyse=0x3:0x133 / me=umh / subme=11 / psy=1 / fade_compensate=0.00 / psy_rd=1.00:0.00 / mixed_ref=1 / me_range=32 / chroma_me=1 / trellis=2 / 8x8dct=1 / cqm=0 / deadzone=21,11 / fast_pskip=0 / chroma_qp_offset=-2 / threads=12 / lookahead_threads=2 / sliced_threads=0 / nr=0 / decimate=0 / interlaced=0 / bluray_compat=0 / constrained_intra=0 / bframes=9 / b_pyramid=2 / b_adapt=2 / b_bias=0 / direct=3 / weightb=1 / open_gop=0 / weightp=2 / keyint=240 / keyint_min=23 / scenecut=40 / intra_refresh=0 / rc=2pass / mbtree=0 / bitrate=6455 / ratetol=1.0 / qcomp=0.66 / qpmin=0 / qpmax=69 / qpstep=4 / cplxblur=20.0 / qblur=0.5 / ip_ratio=1.40 / pb_ratio=1.30 / aq=3:0.70
Язык : English
Default : Да
Forced : Нет

Аудио #1
Идентификатор : 2
Формат : AC-3
Формат/Информация : Audio Coding 3
Расширение режима : CM (complete main)
Параметр Endianness формата : Big
Идентификатор кодека : A_AC3
Продолжительность : 2 ч. 8 м.
Вид битрейта : Постоянный
Битрейт : 448 Кбит/сек
Каналы : 6 каналов
Расположение каналов : Front: L C R, Side: L R, LFE
Частота : 48,0 КГц
Частота кадров : 31,250 кадров/сек (1536 spf)
Метод сжатия : С потерями
Размер потока : 413 Мбайт (6%)
Заголовок : DUB | DD5.1 @ 448 kbps
Язык : Russian
Default : Да
Forced : Нет

Аудио #2
Идентификатор : 3
Формат : AC-3
Формат/Информация : Audio Coding 3
Расширение режима : CM (complete main)
Параметр Endianness формата : Big
Идентификатор кодека : A_AC3
Продолжительность : 2 ч. 8 м.
Вид битрейта : Постоянный
Битрейт : 640 Кбит/сек
Каналы : 6 каналов
Расположение каналов : Front: L C R, Side: L R, LFE
Частота : 48,0 КГц
Частота кадров : 31,250 кадров/сек (1536 spf)
Метод сжатия : С потерями
Размер потока : 590 Мбайт (8%)
Заголовок : Original | DD5.1 @ 640 kbps
Язык : English
Default : Нет
Forced : Нет

Текст #1
Идентификатор : 4
Формат : UTF-8
Идентификатор кодека : S_TEXT/UTF8
Идентификатор кодека/Информация : UTF-8 Plain Text
Заголовок : FORCED
Язык : Russian
Default : Да
Forced : Нет

Текст #2
Идентификатор : 5
Формат : UTF-8
Идентификатор кодека : S_TEXT/UTF8
Идентификатор кодека/Информация : UTF-8 Plain Text
Заголовок : FULL
Язык : Russian
Default : Нет
Forced : Нет

Текст #3
Идентификатор : 6
Формат : UTF-8
Идентификатор кодека : S_TEXT/UTF8
Идентификатор кодека/Информация : UTF-8 Plain Text
Язык : English
Default : Нет
Forced : Нет

Меню
00:00:00.000 : en:00:00:00.000
00:11:12.797 : en:00:11:12.797
00:20:26.267 : en:00:20:26.267
00:33:14.659 : en:00:33:14.659
00:43:34.070 : en:00:43:34.070
00:52:53.087 : en:00:52:53.087
01:02:26.534 : en:01:02:26.534
01:12:47.530 : en:01:12:47.530
01:24:12.714 : en:01:24:12.714
01:34:19.863 : en:01:34:19.863
01:38:15.723 : en:01:38:15.723
01:48:57.948 : en:01:48:57.948
01:53:29.970 : en:01:53:29.970
02:01:57.143 : en:02:01:57.143

[url=http://цензор/index.php] [/url] [url=http://цензор/viewtopic.php?t=17323] [/url]
Источник http://BlaTor.org

Внимание! AdBlock блокирует показ скриншотов, все вопросы к разработчикам )))
Трекер:  [ 13-Окт-2019 08:50 ]

  

Скачать .torrent

Размер .torrent файла 34 KB


Размер: 6.79 GB
Хэш (hash) релиза: 78858e1735f9600e24548a3533ed00c5ca25179a
Подписка на обновления:

Торренты, похожие на Закон ночи Live by Night скачать торрент

Форум Название Автор Размер S L Добавлен
Зарубежные фильмы 2016-2019 (Новинки зарубежного кино) ·%· Закон ночи / Live by Night (2016) WEB-DLRip-AVC | D | Open Matte Galfimbul 11618909161.08 GB 0 0 1557400814

14:20

9-Май-19

Зарубежные фильмы 2016-2019 (Новинки зарубежного кино) ·%· Закон ночи / Live by Night (2016) WEB-DL 1080p | D Galfimbul 51292156014.78 GB 0 0 1553172611

15:50

21-Мар-19

Зарубежные фильмы 2016-2019 (Новинки зарубежного кино) ·%· Закон ночи / Live by Night (2016) BDRip 1080p | D, A Galfimbul 93488197038.71 GB 0 0 1530367900

17:11

30-Июн-18

Зарубежные фильмы 2016-2019 (Новинки зарубежного кино) ·%· Закон ночи / Live by Night (2016) BDRemux | D, A Galfimbul 3126798794429.12 GB 0 0 1530080413

09:20

27-Июн-18

Зарубежные фильмы до 2016 ·· Закон ночи / Live by Night (Бен Аффлек / Ben Affleck) [2016, США, боевик, триллер, драма, криминал, BD>DVD9 (Custom)] DUB + Sub Rus / Eng + Original Eng Galfimbul 83771781127.8 GB 0 0 1511098609

16:36

19-Ноя-17

Зарубежные фильмы до 2016 ·· Закон ночи / Live by Night (Бен Аффлек / Ben Affleck) [2016, США, Драма, криминал, DVD5 (сжатый)] исх. R2, Dub + Sub Rus + Original Eng Galfimbul 46867824644.36 GB 0 0 1501142775

11:06

27-Июл-17

Зарубежные фильмы до 2016 ·· Закон ночи / Live by Night (Бен Аффлек / Ben Affleck) [2016, США, Гангстерская драма, DVD9] Dub + Sub Rus + Original Eng Galfimbul 68364792056.37 GB 0 0 1500735976

18:06

22-Июл-17

Трейлеры и дополнительные материалы ·· Закон Ночи / Live by Night (Бен Аффлек / Ben Affleck) [2016, Драма | Криминал, BDRip 720p] дополнительные материалы Galfimbul 15050446781.4 GB 0 0 1493800090

11:28

3-Май-17

Зарубежные фильмы 2016-2019 (Новинки зарубежного кино) ·· Закон ночи / Live by Night (Бен Аффлек / Ben Affleck) [2016, США, драма, криминал, Blu-ray 1080p] Лицензия Galfimbul 4503820108341.95 GB 0 0 1491545801

09:16

7-Апр-17

Зарубежные фильмы до 2016 ·· Закон ночи / Live by Night (Бен Аффлек / Ben Affleck) [2016, США, драма, криминал, Blu-ray disc 1080p] Dub (CEE) + Sub Rus, Eng + Original Eng Galfimbul 4503820108341.95 GB 1 1 1491544170

08:49

7-Апр-17

Зарубежные фильмы до 2016 ·· Закон ночи / Live by Night (Бен Аффлек / Ben Affleck) [2016, США, драма, криминал, BDRip 1080p] Dub (Blu-Ray CEE) + Sub Rus, Eng + Original Eng Galfimbul 1621871403815.1 GB 0 0 1491472195

12:49

6-Апр-17

Зарубежные фильмы 2016-2019 (Новинки зарубежного кино) ·· Закон ночи / Live by Night (Бен Аффлек / Ben Affleck) [2016, США, драма, криминал, BDRip 720p] Лицензия Galfimbul 85261271397.94 GB 0 0 1491464677

10:44

6-Апр-17

Зарубежные фильмы 2016-2019 (Новинки зарубежного кино) ·· Закон ночи / Live by Night (Бен Аффлек / Ben Affleck) [2016, США, драма, криминал, BDRip 1080p] Лицензия Galfimbul 1621968970915.11 GB 0 0 1491464670

10:44

6-Апр-17

Зарубежные фильмы до 2016 ·· Закон ночи / Live by Night (Бен Аффлек / Ben Affleck) [2016, США, драма, криминал, BDRip 720p] Dub (iTunes) + Sub Rus, Eng + Original Eng Galfimbul 64721499596.03 GB 0 0 1490380756

21:39

24-Мар-17

Зарубежные фильмы до 2016 ·· Закон ночи / Live by Night (Бен Аффлек / Ben Affleck) [2016, США, драма, криминал, BDRip 1080p] Dub (iTunes) + Sub Rus, Eng + Original Eng Galfimbul 100230091739.33 GB 0 0 1490380750

21:39

24-Мар-17

Зарубежные фильмы 2016-2019 (Новинки зарубежного кино) ·· Закон ночи / Live by Night (Бен Аффлек / Ben Affleck) [2016, США, драма, криминал, BDRip-AVC] Dub + Original + Sub (rus, eng) Galfimbul 21632043832.01 GB 0 0 1489526875

00:27

15-Мар-17

Зарубежные фильмы 2016-2019 (Новинки зарубежного кино) ·· Закон ночи / Live by Night (Бен Аффлек / Ben Affleck) [2016, США, Драма, криминал, WEB-DLRip] Dub (iTunes) Galfimbul 15744901121.47 GB 0 0 1489488921

13:55

14-Мар-17

Зарубежные фильмы 2016-2019 (Новинки зарубежного кино) ·· Закон ночи / Live by Night (Бен Аффлек / Ben Affleck) [2016, США, драма, криминал, WEB-DLRip-AVC] Dub + Original + Sub (rus, eng) Galfimbul 22781077802.12 GB 0 0 1489488907

13:55

14-Мар-17

Зарубежные фильмы 2016-2019 (Новинки зарубежного кино) ·· Закон ночи / Live by Night (Бен Аффлек / Ben Affleck) [2016, США, драма, криминал, WEB-DLRip-AVC] Dub + Sub (rus) Galfimbul 16175253741.51 GB 0 0 1489488900

13:55

14-Мар-17

Еще никто не оставлял запись к записи скачать торрент Закон ночи Live by Night . Будь первым!

!Обратная связь