Скачать через торрент Закон ночи Live by Night Фильм бесплатно в хорошем качестве torrent

Скачивайте на UnionPeer.org фильмы через торрент без регистрации. Новинки кино в хорошем качестве через торрент. На UnionPeer.org можно скачать через торрент фильмы 2014 и 2015 годов. Самые новые фильмы.

Скачать торрент Закон ночи Live by Night бесплатно через .torrent фильм мультфильм сериал

Статистика раздачи
Размер:  4.78 GB   |    Зарегистрирован:  4 года 11 месяцев   |    .torrent скачан:  42 раза   |   
Раздают:  1  
 

Скачать Закон ночи / Live by Night (2016) WEB-DL 1080p | D через torrent

 
 
Автор Сообщение

Galfimbul

avatar Galfimbul




Название: Закон ночи
Оригинальное название: Live by Night
Год выхода: 2016
Жанр: драма, криминал
Режиссер: Бен Аффлек

В ролях: Бен Аффлек, Крис Мессина, Зои Салдана, Сиенна Миллер, Крис Купер, Эль Фаннинг, Брендан Глисон, Мигель, Ремо Джироне, Роберт Гленистер
</font>

О фильме:
Действие происходит в Америке времен сухого закона. Главный герой картины, сын полицейского, зарабатывает бутлегерством, в результате чего он оказывается вовлечен в жизнь криминального мира.


Страна: США
Студия: Pearl Street Films, Warner Bros. Pictures
Продолжительность: 02:08:58
Перевод: Дублированный, авторский (одноголосый, закадровый).
Субтитры: Русские (полные + форс.), английские (Full), английские (SDH), английские (SDH-Colored)

Файл
Формат: Matroska
Качество: WEB-DL 1080p | Open Matte | *Amazon HBO*
Видео: 1920x1080 at 23.976 fps, x264, ~4404 kbps
Аудио #1: AC3, 6 ch, ~448 kbps - | Русский | -
Аудио #2: AC3, 6 ch, ~448 kbps - | Английский | -
Формат субтитров: softsub (SRT)

***Релиз от: -=DoMiNo=-

***Сравнения => BDRip vs WEB-DL | Open Matte***


[li]Исходник - WEB-DL *Amazon HBO*
[li]За аудио дороги и субтитры - спасибо potroks
[li]Сборка файла, подгонка дорог и сабов - моя[/li][/li][/li]
General
Unique ID : 39879223721466093304143184026867370176 (0x1E007588640D8E12500C0D4203D088C0)
Complete name : Закон ночи.2016.1080p.AMZN.WEB-DL.DDP5.1.H.264.O.M.mkv
Format : Matroska
Format version : Version 4
File size : 4.78 GiB
Duration : 2 h 9 min
Overall bit rate : 5 301 kb/s
Movie name : Live by Night (2016)
Encoded date : UTC 2019-03-21 12:05:00
Writing application : mkvmerge v32.0.0 ('Astral Progressions') 64-bit
Writing library : libebml v1.3.7 + libmatroska v1.5.0
Attachments : poster.jpg

Video
ID : 1
Format : AVC
Format/Info : Advanced Video Codec
Format profile : High@L4
Format settings : CABAC / 4 Ref Frames
Format settings, CABAC : Yes
Format settings, ReFrames : 4 frames
Codec ID : V_MPEG4/ISO/AVC
Duration : 2 h 8 min
Bit rate : 4 404 kb/s
Width : 1 920 pixels
Height : 1 080 pixels
Display aspect ratio : 16:9
Frame rate mode : Constant
Frame rate : 23.976 (24000/1001) FPS
Color space : YUV
Chroma subsampling : 4:2:0
Bit depth : 8 bits
Scan type : Progressive
Bits/(Pixel*Frame) : 0.089
Stream size : 3.97 GiB (83%)
Title : Закон ночи
Language : English
Default : Yes
Forced : No
Color range : Limited
Color primaries : BT.709
Transfer characteristics : BT.709
Matrix coefficients : BT.709

Audio #1
ID : 2
Format : AC-3
Format/Info : Audio Coding 3
Commercial name : Dolby Digital
Codec ID : A_AC3
Duration : 2 h 8 min
Bit rate mode : Constant
Bit rate : 448 kb/s
Channel(s) : 6 channels
Channel layout : L R C LFE Ls Rs
Sampling rate : 48.0 kHz
Frame rate : 31.250 FPS (1536 SPF)
Bit depth : 16 bits
Compression mode : Lossy
Delay relative to video : 8 s 350 ms
Stream size : 413 MiB (8%)
Title : Дубляж [Blu-ray CEE]
Language : Russian
Service kind : Complete Main
Default : Yes
Forced : No

Audio #2
ID : 3
Format : AC-3
Format/Info : Audio Coding 3
Commercial name : Dolby Digital
Codec ID : A_AC3
Duration : 2 h 8 min
Bit rate mode : Constant
Bit rate : 448 kb/s
Channel(s) : 6 channels
Channel layout : L R C LFE Ls Rs
Sampling rate : 48.0 kHz
Frame rate : 31.250 FPS (1536 SPF)
Bit depth : 16 bits
Compression mode : Lossy
Delay relative to video : 8 s 350 ms
Stream size : 413 MiB (8%)
Title : ENG
Language : English
Service kind : Complete Main
Default : No
Forced : No

Text #1
ID : 4
Format : UTF-8
Codec ID : S_TEXT/UTF8
Codec ID/Info : UTF-8 Plain Text
Duration : 1 h 57 min
Bit rate : 1 b/s
Count of elements : 25
Stream size : 1 013 Bytes (0%)
Title : Forced
Language : Russian
Default : Yes
Forced : Yes

Text #2
ID : 5
Format : UTF-8
Codec ID : S_TEXT/UTF8
Codec ID/Info : UTF-8 Plain Text
Duration : 2 h 8 min
Bit rate : 96 b/s
Count of elements : 1613
Stream size : 90.4 KiB (0%)
Title : Full
Language : Russian
Default : No
Forced : No

Text #3
ID : 6
Format : UTF-8
Codec ID : S_TEXT/UTF8
Codec ID/Info : UTF-8 Plain Text
Duration : 2 h 0 min
Bit rate : 59 b/s
Count of elements : 1596
Stream size : 53.0 KiB (0%)
Title : Full
Language : English
Default : No
Forced : No

Text #4
ID : 7
Format : UTF-8
Codec ID : S_TEXT/UTF8
Codec ID/Info : UTF-8 Plain Text
Duration : 2 h 1 min
Bit rate : 63 b/s
Count of elements : 1748
Stream size : 56.3 KiB (0%)
Title : SDH
Language : English
Default : No
Forced : No

Text #5
ID : 8
Format : UTF-8
Codec ID : S_TEXT/UTF8
Codec ID/Info : UTF-8 Plain Text
Duration : 2 h 1 min
Bit rate : 72 b/s
Count of elements : 1749
Stream size : 64.6 KiB (0%)
Title : SDH-Colored
Language : English
Default : No
Forced : No


Источник http://BlaTor.org

Внимание! AdBlock блокирует показ скриншотов, все вопросы к разработчикам )))
Трекер:  [ 21-Мар-2019 15:50 ]

  

Скачать .torrent

Размер .torrent файла 12 KB


Размер: 4.78 GB
Хэш (hash) релиза: 13dc89d4b2addb89c8e659e2d7cb895129647148
Подписка на обновления:

Торренты, похожие на Закон ночи Live by Night скачать торрент

Форум Название Автор Размер S L Добавлен
Зарубежные фильмы 2016-2019 (Новинки зарубежного кино) ·%· Закон ночи / Live by Night (2016) BDRip 1080p от New-Team & qqss44 | Лицензия Galfimbul 72916543496.79 GB 0 0 1570945833

08:50

13-Окт-19

Зарубежные фильмы 2016-2019 (Новинки зарубежного кино) ·%· Закон ночи / Live by Night (2016) WEB-DLRip-AVC | D | Open Matte Galfimbul 11618909161.08 GB 0 0 1557400814

14:20

9-Май-19

Зарубежные фильмы 2016-2019 (Новинки зарубежного кино) ·%· Закон ночи / Live by Night (2016) BDRip 1080p | D, A Galfimbul 93488197038.71 GB 0 0 1530367900

17:11

30-Июн-18

Зарубежные фильмы 2016-2019 (Новинки зарубежного кино) ·%· Закон ночи / Live by Night (2016) BDRemux | D, A Galfimbul 3126798794429.12 GB 0 0 1530080413

09:20

27-Июн-18

Зарубежные фильмы до 2016 ·· Закон ночи / Live by Night (Бен Аффлек / Ben Affleck) [2016, США, боевик, триллер, драма, криминал, BD>DVD9 (Custom)] DUB + Sub Rus / Eng + Original Eng Galfimbul 83771781127.8 GB 0 0 1511098609

16:36

19-Ноя-17

Зарубежные фильмы до 2016 ·· Закон ночи / Live by Night (Бен Аффлек / Ben Affleck) [2016, США, Драма, криминал, DVD5 (сжатый)] исх. R2, Dub + Sub Rus + Original Eng Galfimbul 46867824644.36 GB 0 0 1501142775

11:06

27-Июл-17

Зарубежные фильмы до 2016 ·· Закон ночи / Live by Night (Бен Аффлек / Ben Affleck) [2016, США, Гангстерская драма, DVD9] Dub + Sub Rus + Original Eng Galfimbul 68364792056.37 GB 0 0 1500735976

18:06

22-Июл-17

Трейлеры и дополнительные материалы ·· Закон Ночи / Live by Night (Бен Аффлек / Ben Affleck) [2016, Драма | Криминал, BDRip 720p] дополнительные материалы Galfimbul 15050446781.4 GB 0 0 1493800090

11:28

3-Май-17

Зарубежные фильмы 2016-2019 (Новинки зарубежного кино) ·· Закон ночи / Live by Night (Бен Аффлек / Ben Affleck) [2016, США, драма, криминал, Blu-ray 1080p] Лицензия Galfimbul 4503820108341.95 GB 0 0 1491545801

09:16

7-Апр-17

Зарубежные фильмы до 2016 ·· Закон ночи / Live by Night (Бен Аффлек / Ben Affleck) [2016, США, драма, криминал, Blu-ray disc 1080p] Dub (CEE) + Sub Rus, Eng + Original Eng Galfimbul 4503820108341.95 GB 1 2 1491544170

08:49

7-Апр-17

Зарубежные фильмы до 2016 ·· Закон ночи / Live by Night (Бен Аффлек / Ben Affleck) [2016, США, драма, криминал, BDRip 1080p] Dub (Blu-Ray CEE) + Sub Rus, Eng + Original Eng Galfimbul 1621871403815.1 GB 0 0 1491472195

12:49

6-Апр-17

Зарубежные фильмы 2016-2019 (Новинки зарубежного кино) ·· Закон ночи / Live by Night (Бен Аффлек / Ben Affleck) [2016, США, драма, криминал, BDRip 720p] Лицензия Galfimbul 85261271397.94 GB 0 0 1491464677

10:44

6-Апр-17

Зарубежные фильмы 2016-2019 (Новинки зарубежного кино) ·· Закон ночи / Live by Night (Бен Аффлек / Ben Affleck) [2016, США, драма, криминал, BDRip 1080p] Лицензия Galfimbul 1621968970915.11 GB 0 0 1491464670

10:44

6-Апр-17

Зарубежные фильмы до 2016 ·· Закон ночи / Live by Night (Бен Аффлек / Ben Affleck) [2016, США, драма, криминал, BDRip 720p] Dub (iTunes) + Sub Rus, Eng + Original Eng Galfimbul 64721499596.03 GB 0 0 1490380756

21:39

24-Мар-17

Зарубежные фильмы до 2016 ·· Закон ночи / Live by Night (Бен Аффлек / Ben Affleck) [2016, США, драма, криминал, BDRip 1080p] Dub (iTunes) + Sub Rus, Eng + Original Eng Galfimbul 100230091739.33 GB 0 0 1490380750

21:39

24-Мар-17

Зарубежные фильмы 2016-2019 (Новинки зарубежного кино) ·· Закон ночи / Live by Night (Бен Аффлек / Ben Affleck) [2016, США, драма, криминал, BDRip-AVC] Dub + Original + Sub (rus, eng) Galfimbul 21632043832.01 GB 0 0 1489526875

00:27

15-Мар-17

Зарубежные фильмы 2016-2019 (Новинки зарубежного кино) ·· Закон ночи / Live by Night (Бен Аффлек / Ben Affleck) [2016, США, Драма, криминал, WEB-DLRip] Dub (iTunes) Galfimbul 15744901121.47 GB 0 0 1489488921

13:55

14-Мар-17

Зарубежные фильмы 2016-2019 (Новинки зарубежного кино) ·· Закон ночи / Live by Night (Бен Аффлек / Ben Affleck) [2016, США, драма, криминал, WEB-DLRip-AVC] Dub + Original + Sub (rus, eng) Galfimbul 22781077802.12 GB 0 0 1489488907

13:55

14-Мар-17

Зарубежные фильмы 2016-2019 (Новинки зарубежного кино) ·· Закон ночи / Live by Night (Бен Аффлек / Ben Affleck) [2016, США, драма, криминал, WEB-DLRip-AVC] Dub + Sub (rus) Galfimbul 16175253741.51 GB 0 0 1489488900

13:55

14-Мар-17

Еще никто не оставлял запись к записи скачать торрент Закон ночи Live by Night . Будь первым!

!Обратная связь