Скачать через торрент Форсаж 8 The Fate of the Furious Фильм бесплатно в хорошем качестве torrent

Скачивайте на UnionPeer.org фильмы через торрент без регистрации. Новинки кино в хорошем качестве через торрент. На UnionPeer.org можно скачать через торрент фильмы 2014 и 2015 годов. Самые новые фильмы.

Скачать торрент Форсаж 8 The Fate of the Furious бесплатно через .torrent фильм мультфильм сериал

Статистика раздачи
Размер:  2.18 GB   |    Зарегистрирован:  6 лет 1 месяц   |    .torrent скачан:  144 раза   |   
Раздают:  1  
   
 
Автор Сообщение

Galfimbul

avatar Galfimbul


Форсаж 8 / The Fate of the Furious

Год выпуска: 2017
Страна: Китай, США, Япония
Жанр: боевик, триллер, криминал, приключения
Продолжительность: 02:16:00Перевод: Профессиональный (полное дублирование)
Субтитры: русские, английские
Оригинальная аудиодорожка: английскийРежиссер: Ф. Гэри Грей / F. Gary GrayВ ролях: Вин Дизель, Дуэйн Джонсон, Джейсон Стэйтем, Мишель Родригес, Тайриз Гибсон, Лудакрис, Натали Эммануэль, Курт Рассел, Скотт Иствуд, Шарлиз ТеронОписание:
Пристегните ремни — гонка продолжается. Гавана, Берлин, Нью-Йорк — для самой крутой команды в мире нет ничего невозможного, пока они вместе. Но когда на их пути окажется одна из самых красивых женщин на планете и по совместительству королева киберпреступности, дороги друзей разойдутся.Тип релиза: WEB-DLRip
Контейнер: AVI

Видео: 720x400 (1.80:1), 23.976 fps, XviD build 73 ~1517 kbps avg, 0.22 bit/pixel
Аудио1: 48 kHz, AC3 Dolby Digital, 3/2 (L,C,R,l,r) + LFE ch, ~384 kbps | Dub
Аудио2: 48 kHz, AC3 Dolby Digital, 3/2 (L,C,R,l,r) + LFE ch, ~384 kbps | OriginalСэмпл
Format                      : AVI
Format/Info                 : Audio Video Interleave
Format profile              : OpenDML
File size                   : 2.19 GiB
Duration                    : 2 h 16 min
Overall bit rate            : 2 292 kb/s
Writing application         : VirtualDubMod 1.5.10.2 (build 2542/release)
Writing library             : VirtualDubMod build 2542/release

Video
ID                          : 0
Format                      : MPEG-4 Visual
Format profile              : Advanced Simple@L5
Format settings             : BVOP1
Format settings, BVOP       : 1
Format settings, QPel       : No
Format settings, GMC        : No warppoints
Format settings, Matrix     : Default (MPEG)
Codec ID                    : XVID
Codec ID/Hint               : XviD
Duration                    : 2 h 16 min
Bit rate                    : 1 506 kb/s
Width                       : 720 pixels
Height                      : 400 pixels
Display aspect ratio        : 16:9
Frame rate                  : 23.976 (24000/1001) FPS
Original frame rate         : 23.976 (23976/1000) FPS
Color space                 : YUV
Chroma subsampling          : 4:2:0
Bit depth                   : 8 bits
Scan type                   : Progressive
Compression mode            : Lossy
Bits/(Pixel*Frame)          : 0.218
Stream size                 : 1.44 GiB (66%)
Writing library             : XviD 73

Audio #1
ID                          : 1
Format                      : AC-3
Format/Info                 : Audio Coding 3
Codec ID                    : 2000
Duration                    : 2 h 16 min
Bit rate mode               : Constant
Bit rate                    : 384 kb/s
Channel(s)                  : 6 channels
Channel positions           : Front: L C R, Side: L R, LFE
Sampling rate               : 48.0 kHz
Frame rate                  : 31.250 FPS (1536 SPF)
Bit depth                   : 16 bits
Compression mode            : Lossy
Stream size                 : 376 MiB (17%)
Alignment                   : Split accross interleaves
Interleave, duration        : 42  ms (1.00 video frame)
Interleave, preload duratio : 500  ms
Service kind                : Complete Main

Audio #2
ID                          : 2
Format                      : AC-3
Format/Info                 : Audio Coding 3
Codec ID                    : 2000
Duration                    : 2 h 16 min
Bit rate mode               : Constant
Bit rate                    : 384 kb/s
Channel(s)                  : 6 channels
Channel positions           : Front: L C R, Side: L R, LFE
Sampling rate               : 48.0 kHz
Frame rate                  : 31.250 FPS (1536 SPF)
Bit depth                   : 16 bits
Compression mode            : Lossy
Stream size                 : 376 MiB (17%)
Alignment                   : Split accross interleaves
Interleave, duration        : 42  ms (1.00 video frame)
Interleave, preload duratio : 500  ms
Service kind                : Complete Main


Внимание! AdBlock блокирует показ скриншотов, все вопросы к разработчикам )))
Трекер:  [ 23-Янв-2018 08:30 ]

  

Скачать .torrent

Размер .torrent файла 11 KB


Размер: 2.18 GB
Хэш (hash) релиза: fc9aefaef070363f2663d6e0205ef89d327d5ce8
Подписка на обновления:

Торренты, похожие на Форсаж 8 The Fate of the Furious скачать торрент

Форум Название Автор Размер S L Добавлен
Зарубежные фильмы 2016-2019 (Новинки зарубежного кино) ·%· Форсаж 8 / The Fate of the Furious (2017) WEB-DLRip 720p от SuperMin | D | Open Matte Galfimbul 40946189953.81 GB 0 0 1586533215

18:40

10-Апр-20

Зарубежные фильмы 2016-2019 (Новинки зарубежного кино) ·%· Форсаж 8 / The Fate of the Furious (2017) WEB-DLRip-AVC от ExKinoRay | D | Open Matte Galfimbul 782906543747 MB 0 0 1573841428

21:10

15-Ноя-19

Зарубежные фильмы 2016-2019 (Новинки зарубежного кино) ·%· Форсаж 8 / The Fate of the Furious (2017) WEBRip 720p от HDReactor | D, A | Director's Extended Cut Galfimbul 61846188855.76 GB 0 0 1555874409

22:20

21-Апр-19

Зарубежные фильмы 2016-2019 (Новинки зарубежного кино) ·%· Форсаж 8 / The Fate of the Furious (2017) WEBRip 720p | D | Director's Extended Cut Galfimbul 37188640593.46 GB 0 0 1555697437

21:10

19-Апр-19

Зарубежные фильмы 2016-2019 (Новинки зарубежного кино) ·%· Форсаж 8 / The Fate of the Furious (2017) WEBRip 1080p | D | Director's Extended Cut Galfimbul 87008868228.1 GB 0 0 1555683607

17:20

19-Апр-19

Зарубежные фильмы 2016-2019 (Новинки зарубежного кино) ·%· Форсаж 8 / The Fate of the Furious (2017) WEBRip 1080p | D, A | Director's Extended Cut Galfimbul 44759256694.17 GB 0 0 1555653612

09:00

19-Апр-19

Зарубежные фильмы до 2016 ·%· Форсаж 8 / The Fate of the Furious (Ф. Гэри Грей / F. Gary Gray) [2017, Китай, США, Япония, Боевик, триллер, криминал, DVD5 (сжатый)] исх. R5, Dub + Sub Rus + Original Eng Galfimbul 46963322884.37 GB 0 0 1531162964

22:02

9-Июл-18

Зарубежные фильмы до 2016 ·· Форсаж 8 / The Fate of the Furious (Ф. Гэри Грей / F. Gary Gray) [2017, Китай, США, Япония, Боевик, триллер, криминал, DVD9+DVD5] R5 Dub + Sub Rus + Original Eng [2-ух дисковое издание] Galfimbul 95068323848.85 GB 0 0 1524751335

17:02

26-Апр-18

Зарубежные фильмы до 2016 ·· Форсаж 8 / The Fate of the Furious (Ф. Гэри Грей / F. Gary Gray) [2017, Китай, США, Япония, боевик, триллер, криминал, приключения, WEB-DL 1080p] [Theatrical Cut, Open Matte] Dub + VO + Original Eng + Sub Rus, Eng Galfimbul 1512459744514.09 GB 0 0 1516488376

01:46

21-Янв-18

Зарубежные фильмы 2016-2019 (Новинки зарубежного кино) ·· Форсаж 8 / The Fate of the Furious (Ф. Гэри Грей / F. Gary Gray) [2017, США, боевик, криминал, приключения, BDRip] AVO (Юрий Живов) Galfimbul 22372065282.08 GB 0 0 1516203016

18:30

17-Янв-18

Зарубежные фильмы 2016-2019 (Новинки зарубежного кино) ·· Форсаж 8 / The Fate of the Furious (Ф. Гэри Грей / F. Gary Gray) [2017, США, боевик, триллер, криминал, приключения, WEBRip-AVC] [Локализованный видеоряд] Dub + Sub Rus Eng + Original Eng Galfimbul 31399647512.92 GB 0 0 1507840219

23:30

12-Окт-17

Зарубежные фильмы до 2016 ·· Форсаж 8 / The Fate of the Furious (Ф. Гэри Грей / F. Gary Gray) [2017, США, боевик, триллер, криминал, приключения, BD> DVD5 (Custom)] DUB + Sub Rus / Eng + Original Eng Galfimbul 46320680964.31 GB 0 0 1503596170

20:36

24-Авг-17

Зарубежные фильмы до 2016 ·· Форсаж 8 / The Fate of the Furious (Ф. Гэри Грей / F. Gary Gray) [2017, США, боевик, триллер, криминал, приключения, BD> DVD9 (Custom)] DUB + DTS + Sub Rus / Eng + Original Eng Galfimbul 85004492807.92 GB 0 0 1503345968

23:06

21-Авг-17

Трейлеры и дополнительные материалы ·· Форсаж 8 / The Fate of the Furious (Ф. Гэри Грей) [2017, Боевик | Триллер | Криминал, BDRip 720p] дополнительные материалы Galfimbul 22981410262.14 GB 0 0 1503128028

10:33

19-Авг-17

Зарубежные фильмы до 2016 ·· Форсаж 8 / The Fate of the Furious (Ф. Гэри Грей / F. Gary Gray) [2017, США, боевик, триллер, криминал, приключения, Blu-ray disc 1080p] [CEE] Dub + Sub Rus, Eng + Original Eng Galfimbul 4584391728242.7 GB 0 0 1502644166

20:09

13-Авг-17

Зарубежные фильмы 2016-2019 (Новинки зарубежного кино) ·· Форсаж 8 / The Fate of the Furious (Ф. Гэри Грей / F. Gary Gray) [2017, США, боевик, триллер, криминал, приключения, BDRip 720p] Лицензия Galfimbul 79306153547.39 GB 0 0 1502541614

15:40

12-Авг-17

Зарубежные фильмы 2016-2019 (Новинки зарубежного кино) ·· Форсаж 8 / The Fate of the Furious (Ф. Гэри Грей / F. Gary Gray) [2017, США, боевик, триллер, криминал, приключения, Blu-Ray CEE 1080p] Лицензия Galfimbul 4584391728242.7 GB 2 0 1502541009

15:30

12-Авг-17

Зарубежные фильмы 2016-2019 (Новинки зарубежного кино) ·· Форсаж 8 / The Fate of the Furious (Ф. Гэри Грей / F. Gary Gray) [2017, США, боевик, триллер, криминал, приключения, BDRip-HEVC 1080p | iTunes Galfimbul 72300681256.73 GB 0 0 1499542218

22:30

8-Июл-17

Зарубежные фильмы до 2016 ·· Форсаж 8 / The Fate of the Furious (Ф. Гэри Грей / F. Gary Gray) [2017, США, боевик, триллер, криминал, приключения, BDRip 1080p] Dub (iTunes) + Sub Rus, Eng + Original Eng Galfimbul 2079324563619.37 GB 0 0 1499256306

15:05

5-Июл-17

Еще никто не оставлял запись к записи скачать торрент Форсаж 8 The Fate of the Furious . Будь первым!

!Обратная связь