Скачать через торрент Форсаж 8 The Fate of the Furious Фильм бесплатно в хорошем качестве torrent

Скачивайте на UnionPeer.org фильмы через торрент без регистрации. Новинки кино в хорошем качестве через торрент. На UnionPeer.org можно скачать через торрент фильмы 2014 и 2015 годов. Самые новые фильмы.

Скачать торрент Форсаж 8 The Fate of the Furious бесплатно через .torrent фильм мультфильм сериал

Статистика раздачи
Размер:  5.76 GB   |    Зарегистрирован:  4 года 10 месяцев   |    .torrent скачан:  45 раз   |   
Раздают:  1  
 

Скачать Форсаж 8 / The Fate of the Furious (2017) WEBRip 720p от HDReactor | D, A | Director's Extended Cut через torrent

 
 
Автор Сообщение

Galfimbul

avatar Galfimbul


Форсаж 8 / The Fate of the Furious

Год выпуска: 2017
Жанр: Боевик, триллер, криминал
Выпущено: США, One Race Films, Original Film, Пифагор, Universal Pictures
Режиссер: Ф. Гэри Грей
В ролях: Вин Дизель, Дуэйн Джонсон, Джейсон Стэйтем, Мишель Родригес, Тайриз Гибсон, Лудакрис, Натали Эммануэль, Курт Расселл, Скотт Иствуд, Шарлиз Терон

О фильме: Доминик и Летти проводят медовый месяц в Гаване. Все шло просто замечательно, пока Доминик не посмотрел одно видео на некоем загадочном смартфоне. После просмотра он перестает узнавать свою сожительницу, гоняется за ней по дому с мухобойкой и горшком с геранью в руках, а затем так вообще похищает электрический выключатель с военной базы в Берлине. И теперь самой крутой команде в мире необходимо объединиться с бывшими врагами и с грохотом посетить различные закоулки планеты, чтобы найти своего разбушевавшегося лидера и остановить опасную киберпреступницу.



Продолжительность: 02:27:57
Перевод: Дублированный, авторский
Субтитры: Английские

Файл
Качество: WEBRip (720p)
Видео: MPEG-4 AVC, 4100 Кбит/с, 1280x534
Аудио #1: русский (AC3, 2 ch, 48 kHz, 192 kbps) |DUB| - со вставками закадрового перевода (на расширенные сцены)
Аудио #2: русский (AC3, 6 ch, 48 kHz, 448 kbps) |AVO, Ю.Живов|
Аудио #3: русский (AC3, 6 ch, 48 kHz, 448 kbps) |AVO, Л.Володарский|
Аудио #4: английский (AC3, 6 ch, 48 kHz, 384 kbps)
Формат : Matroska
Версия формата : Version 2
Размер файла : 5,76 Гбайт
Продолжительность : 2 ч. 27 м.
Общий поток : 5574 Кбит/сек
Название фильма : ~V ad~
Дата кодирования : UTC 2019-04-21 17:27:56
Программа кодирования : mkvmerge v6.5.0 ('Isn't she lovely') built on Oct 20 2013 12:50:05
Библиотека кодирования : libebml v1.3.0 + libmatroska v1.4.1
Обложка : Yes
Attachments : cover.jpg

Видео
Идентификатор : 1
Формат : AVC
Формат/Информация : Advanced Video Codec
Профиль формата : [email protected]
Настройки формата : CABAC / 11 Ref Frames
Параметр CABAC формата : Да
Параметр RefFrames формата : 11 кадров
Идентификатор кодека : V_MPEG4/ISO/AVC
Продолжительность : 2 ч. 27 м.
Битрейт : 4100 Кбит/сек
Ширина : 1280 пикселей
Высота : 534 пикселя
Соотношение сторон : 2,40:1
Режим частоты кадров : Постоянный
Частота кадров : 23,976 (24000/1001) кадра/сек
Цветовое пространство : YUV
Субдискретизация насыщенности : 4:2:0
Битовая глубина : 8 бит
Тип развёртки : Прогрессивная
Бит/(Пиксели*Кадры) : 0.250
Размер потока : 4,12 Гбайт (72%)
Заголовок : ~V~
Библиотека кодирования : x264 core 157 r2935 545de2f
Настройки программы : cabac=1 / ref=11 / deblock=1:-2:-1 / analyse=0x3:0x133 / me=umh / subme=11 / psy=1 / psy_rd=1.00:0.15 / mixed_ref=1 / me_range=32 / chroma_me=1 / trellis=2 / 8x8dct=1 / cqm=0 / deadzone=21,11 / fast_pskip=0 / chroma_qp_offset=-3 / threads=12 / lookahead_threads=1 / sliced_threads=0 / nr=0 / decimate=0 / interlaced=0 / bluray_compat=0 / constrained_intra=0 / bframes=10 / b_pyramid=2 / b_adapt=2 / b_bias=0 / direct=3 / weightb=1 / open_gop=0 / weightp=2 / keyint=240 / keyint_min=23 / scenecut=40 / intra_refresh=0 / rc=2pass / mbtree=0 / bitrate=4100 / ratetol=1.0 / qcomp=0.80 / qpmin=0 / qpmax=69 / qpstep=4 / cplxblur=20.0 / qblur=0.5 / ip_ratio=1.30 / pb_ratio=1.30 / aq=3:1.00
Язык : Английский
Default : Да
Forced : Нет

Аудио #1
Идентификатор : 2
Формат : AC-3
Формат/Информация : Audio Coding 3
Коммерческое название : Dolby Digital
Идентификатор кодека : A_AC3
Продолжительность : 2 ч. 27 м.
Вид битрейта : Постоянный
Битрейт : 192 Кбит/сек
Каналы : 2 канала
Channel layout : L R
Частота : 48,0 КГц
Частота кадров : 31,250 кадров/сек (1536 SPF)
Битовая глубина : 16 бит
Метод сжатия : С потерями
Размер потока : 203 Мбайт (3%)
Заголовок : DUB
Язык : Русский
Service Kind : Complete Main
Default : Нет
Forced : Нет

Аудио #2
Идентификатор : 3
Формат : AC-3
Формат/Информация : Audio Coding 3
Коммерческое название : Dolby Digital
Идентификатор кодека : A_AC3
Продолжительность : 2 ч. 27 м.
Вид битрейта : Постоянный
Битрейт : 448 Кбит/сек
Каналы : 6 каналов
Channel layout : L R C LFE Ls Rs
Частота : 48,0 КГц
Частота кадров : 31,250 кадров/сек (1536 SPF)
Битовая глубина : 16 бит
Метод сжатия : С потерями
Размер потока : 474 Мбайт (8%)
Заголовок : AVO [Ю.Живов]
Язык : Русский
Service Kind : Complete Main
Default : Да
Forced : Нет

Аудио #3
Идентификатор : 4
Формат : AC-3
Формат/Информация : Audio Coding 3
Коммерческое название : Dolby Digital
Идентификатор кодека : A_AC3
Продолжительность : 2 ч. 27 м.
Вид битрейта : Постоянный
Битрейт : 448 Кбит/сек
Каналы : 6 каналов
Channel layout : L R C LFE Ls Rs
Частота : 48,0 КГц
Частота кадров : 31,250 кадров/сек (1536 SPF)
Битовая глубина : 16 бит
Метод сжатия : С потерями
Размер потока : 474 Мбайт (8%)
Заголовок : AVO [Л.Володарский]
Язык : Русский
Service Kind : Complete Main
Default : Нет
Forced : Нет

Аудио #4
Идентификатор : 5
Формат : AC-3
Формат/Информация : Audio Coding 3
Коммерческое название : Dolby Digital
Идентификатор кодека : A_AC3
Продолжительность : 2 ч. 27 м.
Вид битрейта : Постоянный
Битрейт : 384 Кбит/сек
Каналы : 6 каналов
Channel layout : L R C LFE Ls Rs
Частота : 48,0 КГц
Частота кадров : 31,250 кадров/сек (1536 SPF)
Битовая глубина : 16 бит
Метод сжатия : С потерями
Размер потока : 406 Мбайт (7%)
Язык : Английский
Service Kind : Complete Main
Default : Нет
Forced : Нет

Текст
Идентификатор : 6
Формат : UTF-8
Идентификатор кодека : S_TEXT/UTF8
Идентификатор кодека/Информация : UTF-8 Plain Text
Заголовок : SDH
Язык : Английский
Default : Нет
Forced : Нет
Сэмпл
Релиз от:
Источник http://BlaTor.org

Внимание! AdBlock блокирует показ скриншотов, все вопросы к разработчикам )))
Трекер:  [ 21-Апр-2019 22:20 ]

  

Скачать .torrent

Размер .torrent файла 15 KB


Размер: 5.76 GB
Хэш (hash) релиза: ec255a3e2aa2b5a4debc4d4f80883b43613a0d7b
Подписка на обновления:

Торренты, похожие на Форсаж 8 The Fate of the Furious скачать торрент

Форум Название Автор Размер S L Добавлен
Зарубежные фильмы 2016-2019 (Новинки зарубежного кино) ·%· Форсаж 8 / The Fate of the Furious (2017) WEB-DLRip 720p от SuperMin | D | Open Matte Galfimbul 40946189953.81 GB 0 0 1586533215

18:40

10-Апр-20

Зарубежные фильмы 2016-2019 (Новинки зарубежного кино) ·%· Форсаж 8 / The Fate of the Furious (2017) WEB-DLRip-AVC от ExKinoRay | D | Open Matte Galfimbul 782906543747 MB 0 0 1573841428

21:10

15-Ноя-19

Зарубежные фильмы 2016-2019 (Новинки зарубежного кино) ·%· Форсаж 8 / The Fate of the Furious (2017) WEBRip 720p | D | Director's Extended Cut Galfimbul 37188640593.46 GB 0 0 1555697437

21:10

19-Апр-19

Зарубежные фильмы 2016-2019 (Новинки зарубежного кино) ·%· Форсаж 8 / The Fate of the Furious (2017) WEBRip 1080p | D | Director's Extended Cut Galfimbul 87008868228.1 GB 0 0 1555683607

17:20

19-Апр-19

Зарубежные фильмы 2016-2019 (Новинки зарубежного кино) ·%· Форсаж 8 / The Fate of the Furious (2017) WEBRip 1080p | D, A | Director's Extended Cut Galfimbul 44759256694.17 GB 0 0 1555653612

09:00

19-Апр-19

Зарубежные фильмы до 2016 ·%· Форсаж 8 / The Fate of the Furious (Ф. Гэри Грей / F. Gary Gray) [2017, Китай, США, Япония, Боевик, триллер, криминал, DVD5 (сжатый)] исх. R5, Dub + Sub Rus + Original Eng Galfimbul 46963322884.37 GB 0 0 1531162964

22:02

9-Июл-18

Зарубежные фильмы до 2016 ·· Форсаж 8 / The Fate of the Furious (Ф. Гэри Грей / F. Gary Gray) [2017, Китай, США, Япония, Боевик, триллер, криминал, DVD9+DVD5] R5 Dub + Sub Rus + Original Eng [2-ух дисковое издание] Galfimbul 95068323848.85 GB 0 0 1524751335

17:02

26-Апр-18

Зарубежные фильмы 2016-2019 (Новинки зарубежного кино) ·· Форсаж 8 / The Fate of the Furious (Ф. Гэри Грей / F. Gary Gray) [2017, Китай, США, Япония, боевик, триллер, криминал, приключения, WEB-DLRip] [Theatrical Cut, Open Matte] Dub + Sub (Rus, Eng) + Original Eng Galfimbul 23389552612.18 GB 0 0 1516685439

08:30

23-Янв-18

Зарубежные фильмы до 2016 ·· Форсаж 8 / The Fate of the Furious (Ф. Гэри Грей / F. Gary Gray) [2017, Китай, США, Япония, боевик, триллер, криминал, приключения, WEB-DL 1080p] [Theatrical Cut, Open Matte] Dub + VO + Original Eng + Sub Rus, Eng Galfimbul 1512459744514.09 GB 0 0 1516488376

01:46

21-Янв-18

Зарубежные фильмы 2016-2019 (Новинки зарубежного кино) ·· Форсаж 8 / The Fate of the Furious (Ф. Гэри Грей / F. Gary Gray) [2017, США, боевик, криминал, приключения, BDRip] AVO (Юрий Живов) Galfimbul 22372065282.08 GB 0 0 1516203016

18:30

17-Янв-18

Зарубежные фильмы 2016-2019 (Новинки зарубежного кино) ·· Форсаж 8 / The Fate of the Furious (Ф. Гэри Грей / F. Gary Gray) [2017, США, боевик, триллер, криминал, приключения, WEBRip-AVC] [Локализованный видеоряд] Dub + Sub Rus Eng + Original Eng Galfimbul 31399647512.92 GB 0 0 1507840219

23:30

12-Окт-17

Зарубежные фильмы до 2016 ·· Форсаж 8 / The Fate of the Furious (Ф. Гэри Грей / F. Gary Gray) [2017, США, боевик, триллер, криминал, приключения, BD> DVD5 (Custom)] DUB + Sub Rus / Eng + Original Eng Galfimbul 46320680964.31 GB 0 0 1503596170

20:36

24-Авг-17

Зарубежные фильмы до 2016 ·· Форсаж 8 / The Fate of the Furious (Ф. Гэри Грей / F. Gary Gray) [2017, США, боевик, триллер, криминал, приключения, BD> DVD9 (Custom)] DUB + DTS + Sub Rus / Eng + Original Eng Galfimbul 85004492807.92 GB 0 0 1503345968

23:06

21-Авг-17

Трейлеры и дополнительные материалы ·· Форсаж 8 / The Fate of the Furious (Ф. Гэри Грей) [2017, Боевик | Триллер | Криминал, BDRip 720p] дополнительные материалы Galfimbul 22981410262.14 GB 0 0 1503128028

10:33

19-Авг-17

Зарубежные фильмы до 2016 ·· Форсаж 8 / The Fate of the Furious (Ф. Гэри Грей / F. Gary Gray) [2017, США, боевик, триллер, криминал, приключения, Blu-ray disc 1080p] [CEE] Dub + Sub Rus, Eng + Original Eng Galfimbul 4584391728242.7 GB 0 0 1502644166

20:09

13-Авг-17

Зарубежные фильмы 2016-2019 (Новинки зарубежного кино) ·· Форсаж 8 / The Fate of the Furious (Ф. Гэри Грей / F. Gary Gray) [2017, США, боевик, триллер, криминал, приключения, BDRip 720p] Лицензия Galfimbul 79306153547.39 GB 0 0 1502541614

15:40

12-Авг-17

Зарубежные фильмы 2016-2019 (Новинки зарубежного кино) ·· Форсаж 8 / The Fate of the Furious (Ф. Гэри Грей / F. Gary Gray) [2017, США, боевик, триллер, криминал, приключения, Blu-Ray CEE 1080p] Лицензия Galfimbul 4584391728242.7 GB 2 0 1502541009

15:30

12-Авг-17

Зарубежные фильмы 2016-2019 (Новинки зарубежного кино) ·· Форсаж 8 / The Fate of the Furious (Ф. Гэри Грей / F. Gary Gray) [2017, США, боевик, триллер, криминал, приключения, BDRip-HEVC 1080p | iTunes Galfimbul 72300681256.73 GB 0 0 1499542218

22:30

8-Июл-17

Зарубежные фильмы до 2016 ·· Форсаж 8 / The Fate of the Furious (Ф. Гэри Грей / F. Gary Gray) [2017, США, боевик, триллер, криминал, приключения, BDRip 1080p] Dub (iTunes) + Sub Rus, Eng + Original Eng Galfimbul 2079324563619.37 GB 0 0 1499256306

15:05

5-Июл-17

Еще никто не оставлял запись к записи скачать торрент Форсаж 8 The Fate of the Furious . Будь первым!

!Обратная связь