Скачать через торрент Форсаж 8 The Fate of the Furious Фильм бесплатно в хорошем качестве torrent

Скачивайте на UnionPeer.org фильмы через торрент без регистрации. Новинки кино в хорошем качестве через торрент. На UnionPeer.org можно скачать через торрент фильмы 2014 и 2015 годов. Самые новые фильмы.

Скачать торрент Форсаж 8 The Fate of the Furious бесплатно через .torrent фильм мультфильм сериал

Статистика раздачи
Размер:  747 MB   |    Зарегистрирован:  4 года 3 месяца   |    .torrent скачан:  19 раз   |   
Раздают:  1  
 

Скачать Форсаж 8 / The Fate of the Furious (2017) WEB-DLRip-AVC от ExKinoRay | D | Open Matte через torrent

 
 
Автор Сообщение

Galfimbul

avatar Galfimbul



Название: Форсаж 8
Оригинальное название: The Fate of the Furious
Год выпуска: 2017
Жанр: Боевик, триллер, криминал, приключения
Режиссер: Ф. Гэри Грей
В ролях: Вин Дизель, Дуэйн Джонсон, Джейсон Стэйтем, Мишель Родригес, Тайриз Гибсон, Лудакрис, Натали Эммануэль, Курт Рассел, Скотт Иствуд, Шарлиз Терон, Хелен Миррен, Эльза Патаки

О фильме:
Доминик окончательно капитулировал перед киберпреступницей Сайфер, незаметно оказавшись полностью под её управлением. Главный герой готов пойти на любые жертвы, лишь бы заполучить невероятно мощную пушку, работающую на принципах электромагнетизма. Загадочный Мистер Никто хочет выследить отбившегося от рук Доминика, и для этого он решает нанять Деккарда Шоу и Люка Хоббса, которым когда-то давно уже удавалось выйти на след Торетто. Смогут ли они вместе с бывшей командой Доминика найти сошедшего с ума гонщика и разрушить его невероятно амбициозные планы? Теперь в руках Деккарда и Люка без преувеличения находится судьба всего человечества…



Страна: Китай, США, Япония
Студия: Universal Pictures
Продолжительность: 02:15:55
Перевод: Профессиональный (полное дублирование) Blu-ray CEE

Файл
Формат: MKV
Качество: WEB-DLRip-AVC
Видео: MPEG-4 AVC, 704x396, - 690 Кбит/с
Аудио: AAC-HE, 2 ch, - 76 Кбит/с
Субтитры: Русские (на надписи, полные), английские
Общее
Уникальный идентификатор : 314041524124940729119873540165976232014 (0xEC42328FF892E403684A75E16B28904E)
Полное имя : D:MOVIESThe.Fate.of.the.Furious.2017.Open.Matte.ExKinoRay.mkv
Формат : Matroska
Версия формата : Version 4 / Version 2
Размер файла : 747 Мбайт
Продолжительность : 2 ч. 15 м.
Общий поток : 768 Кбит/сек
Дата кодирования : UTC 2019-11-15 17:37:47
Программа кодирования : mkvmerge v35.0.0 ('All The Love In The World') 64-bit
Библиотека кодирования : libebml v1.3.9 + libmatroska v1.5.2
Обложка : Yes
Attachments : cover.png

Видео
Идентификатор : 1
Формат : AVC
Формат/Информация : Advanced Video Codec
Профиль формата : [email protected]
Параметр CABAC формата : Да
Параметр RefFrames формата : 12 кадров
Идентификатор кодека : V_MPEG4/ISO/AVC
Продолжительность : 2 ч. 15 м.
Битрейт : 690 Кбит/сек
Ширина : 704 пикселя
Высота : 396 пикселей
Соотношение сторон : 16:9
Режим частоты кадров : Постоянный
Частота кадров : 23,976 (24000/1001) кадра/сек
Цветовое пространство : YUV
Субдискретизация насыщенности : 4:2:0
Битовая глубина : 8 бит
Тип развёртки : Прогрессивная
Бит/(Пиксели*Кадры) : 0.103
Размер потока : 671 Мбайт (90%)
Библиотека кодирования : x264 core 152 r2851kMod ba24899
Настройки программы : cabac=1 / ref=12 / deblock=1:-3:-3 / analyse=0x3:0x133 / me=umh / subme=10 / psy=1 / fade_compensate=0.00 / psy_rd=1.00:0.12 / mixed_ref=1 / me_range=32 / chroma_me=1 / trellis=2 / 8x8dct=1 / cqm=0 / deadzone=21,11 / fast_pskip=0 / chroma_qp_offset=-3 / threads=6 / lookahead_threads=1 / sliced_threads=0 / nr=0 / decimate=0 / interlaced=0 / bluray_compat=0 / constrained_intra=0 / bframes=12 / b_pyramid=2 / b_adapt=2 / b_bias=0 / direct=3 / weightb=1 / open_gop=0 / weightp=2 / keyint=240 / keyint_min=23 / scenecut=40 / intra_refresh=0 / rc_lookahead=40 / rc=2pass / mbtree=1 / bitrate=690 / ratetol=1.0 / qcomp=0.60 / qpmin=0 / qpmax=69 / qpstep=4 / cplxblur=20.0 / qblur=0.5 / ip_ratio=1.40 / aq=3:1.00
Default : Да
Forced : Нет

Аудио
Идентификатор : 2
Формат : AAC
Формат/Информация : Advanced Audio Codec
Профиль формата : HE-AAC / LC
Идентификатор кодека : A_AAC
Продолжительность : 2 ч. 15 м.
Битрейт : 76,0 Кбит/сек
Каналы : 2 канала
Расположение каналов : Front: L R
Частота : 48,0 КГц / 24,0 КГц
Частота кадров : 23,438 кадра/сек (1024 SPF)
Метод сжатия : С потерями
Задержка видео : 37 мс.
Размер потока : 73,9 Мбайт (10%)
Default : Да
Forced : Нет

Текст #1
Идентификатор : 3
Формат : UTF-8
Идентификатор кодека : S_TEXT/UTF8
Идентификатор кодека/Информация : UTF-8 Plain Text
Продолжительность : 2 ч. 7 м.
Битрейт : 1 бит/сек
ElementCount : 43
Размер потока : 1,57 Кбайт (0%)
Заголовок : Captions, BluRay
Язык : Russian
Default : Да
Forced : Да

Текст #2
Идентификатор : 4
Формат : UTF-8
Идентификатор кодека : S_TEXT/UTF8
Идентификатор кодека/Информация : UTF-8 Plain Text
Продолжительность : 2 ч. 14 м.
Битрейт : 76 бит/сек
ElementCount : 1513
Размер потока : 75,9 Кбайт (0%)
Заголовок : Full, BluRay
Язык : Russian
Default : Нет
Forced : Нет

Текст #3
Идентификатор : 5
Формат : UTF-8
Идентификатор кодека : S_TEXT/UTF8
Идентификатор кодека/Информация : UTF-8 Plain Text
Продолжительность : 2 ч. 3 м.
Битрейт : 51 бит/сек
ElementCount : 1516
Размер потока : 46,9 Кбайт (0%)
Заголовок : Full, BluRay
Язык : English
Default : Нет
Forced : Нет


Источник http://BlaTor.org

Внимание! AdBlock блокирует показ скриншотов, все вопросы к разработчикам )))
Трекер:  [ 15-Ноя-2019 21:10 ]

  

Скачать .torrent

Размер .torrent файла 15 KB


Размер: 747 MB
Хэш (hash) релиза: 5e8fdc838ff680622c3108db63e80c0bc46bb078
Подписка на обновления:

Торренты, похожие на Форсаж 8 The Fate of the Furious скачать торрент

Форум Название Автор Размер S L Добавлен
Зарубежные фильмы 2016-2019 (Новинки зарубежного кино) ·%· Форсаж 8 / The Fate of the Furious (2017) WEB-DLRip 720p от SuperMin | D | Open Matte Galfimbul 40946189953.81 GB 0 0 1586533215

18:40

10-Апр-20

Зарубежные фильмы 2016-2019 (Новинки зарубежного кино) ·%· Форсаж 8 / The Fate of the Furious (2017) WEBRip 720p от HDReactor | D, A | Director's Extended Cut Galfimbul 61846188855.76 GB 0 0 1555874409

22:20

21-Апр-19

Зарубежные фильмы 2016-2019 (Новинки зарубежного кино) ·%· Форсаж 8 / The Fate of the Furious (2017) WEBRip 720p | D | Director's Extended Cut Galfimbul 37188640593.46 GB 0 0 1555697437

21:10

19-Апр-19

Зарубежные фильмы 2016-2019 (Новинки зарубежного кино) ·%· Форсаж 8 / The Fate of the Furious (2017) WEBRip 1080p | D | Director's Extended Cut Galfimbul 87008868228.1 GB 0 0 1555683607

17:20

19-Апр-19

Зарубежные фильмы 2016-2019 (Новинки зарубежного кино) ·%· Форсаж 8 / The Fate of the Furious (2017) WEBRip 1080p | D, A | Director's Extended Cut Galfimbul 44759256694.17 GB 0 0 1555653612

09:00

19-Апр-19

Зарубежные фильмы до 2016 ·%· Форсаж 8 / The Fate of the Furious (Ф. Гэри Грей / F. Gary Gray) [2017, Китай, США, Япония, Боевик, триллер, криминал, DVD5 (сжатый)] исх. R5, Dub + Sub Rus + Original Eng Galfimbul 46963322884.37 GB 0 0 1531162964

22:02

9-Июл-18

Зарубежные фильмы до 2016 ·· Форсаж 8 / The Fate of the Furious (Ф. Гэри Грей / F. Gary Gray) [2017, Китай, США, Япония, Боевик, триллер, криминал, DVD9+DVD5] R5 Dub + Sub Rus + Original Eng [2-ух дисковое издание] Galfimbul 95068323848.85 GB 0 0 1524751335

17:02

26-Апр-18

Зарубежные фильмы 2016-2019 (Новинки зарубежного кино) ·· Форсаж 8 / The Fate of the Furious (Ф. Гэри Грей / F. Gary Gray) [2017, Китай, США, Япония, боевик, триллер, криминал, приключения, WEB-DLRip] [Theatrical Cut, Open Matte] Dub + Sub (Rus, Eng) + Original Eng Galfimbul 23389552612.18 GB 0 0 1516685439

08:30

23-Янв-18

Зарубежные фильмы до 2016 ·· Форсаж 8 / The Fate of the Furious (Ф. Гэри Грей / F. Gary Gray) [2017, Китай, США, Япония, боевик, триллер, криминал, приключения, WEB-DL 1080p] [Theatrical Cut, Open Matte] Dub + VO + Original Eng + Sub Rus, Eng Galfimbul 1512459744514.09 GB 0 0 1516488376

01:46

21-Янв-18

Зарубежные фильмы 2016-2019 (Новинки зарубежного кино) ·· Форсаж 8 / The Fate of the Furious (Ф. Гэри Грей / F. Gary Gray) [2017, США, боевик, криминал, приключения, BDRip] AVO (Юрий Живов) Galfimbul 22372065282.08 GB 0 0 1516203016

18:30

17-Янв-18

Зарубежные фильмы 2016-2019 (Новинки зарубежного кино) ·· Форсаж 8 / The Fate of the Furious (Ф. Гэри Грей / F. Gary Gray) [2017, США, боевик, триллер, криминал, приключения, WEBRip-AVC] [Локализованный видеоряд] Dub + Sub Rus Eng + Original Eng Galfimbul 31399647512.92 GB 0 0 1507840219

23:30

12-Окт-17

Зарубежные фильмы до 2016 ·· Форсаж 8 / The Fate of the Furious (Ф. Гэри Грей / F. Gary Gray) [2017, США, боевик, триллер, криминал, приключения, BD> DVD5 (Custom)] DUB + Sub Rus / Eng + Original Eng Galfimbul 46320680964.31 GB 0 0 1503596170

20:36

24-Авг-17

Зарубежные фильмы до 2016 ·· Форсаж 8 / The Fate of the Furious (Ф. Гэри Грей / F. Gary Gray) [2017, США, боевик, триллер, криминал, приключения, BD> DVD9 (Custom)] DUB + DTS + Sub Rus / Eng + Original Eng Galfimbul 85004492807.92 GB 0 0 1503345968

23:06

21-Авг-17

Трейлеры и дополнительные материалы ·· Форсаж 8 / The Fate of the Furious (Ф. Гэри Грей) [2017, Боевик | Триллер | Криминал, BDRip 720p] дополнительные материалы Galfimbul 22981410262.14 GB 0 0 1503128028

10:33

19-Авг-17

Зарубежные фильмы до 2016 ·· Форсаж 8 / The Fate of the Furious (Ф. Гэри Грей / F. Gary Gray) [2017, США, боевик, триллер, криминал, приключения, Blu-ray disc 1080p] [CEE] Dub + Sub Rus, Eng + Original Eng Galfimbul 4584391728242.7 GB 0 0 1502644166

20:09

13-Авг-17

Зарубежные фильмы 2016-2019 (Новинки зарубежного кино) ·· Форсаж 8 / The Fate of the Furious (Ф. Гэри Грей / F. Gary Gray) [2017, США, боевик, триллер, криминал, приключения, BDRip 720p] Лицензия Galfimbul 79306153547.39 GB 0 0 1502541614

15:40

12-Авг-17

Зарубежные фильмы 2016-2019 (Новинки зарубежного кино) ·· Форсаж 8 / The Fate of the Furious (Ф. Гэри Грей / F. Gary Gray) [2017, США, боевик, триллер, криминал, приключения, Blu-Ray CEE 1080p] Лицензия Galfimbul 4584391728242.7 GB 2 0 1502541009

15:30

12-Авг-17

Зарубежные фильмы 2016-2019 (Новинки зарубежного кино) ·· Форсаж 8 / The Fate of the Furious (Ф. Гэри Грей / F. Gary Gray) [2017, США, боевик, триллер, криминал, приключения, BDRip-HEVC 1080p | iTunes Galfimbul 72300681256.73 GB 0 0 1499542218

22:30

8-Июл-17

Зарубежные фильмы до 2016 ·· Форсаж 8 / The Fate of the Furious (Ф. Гэри Грей / F. Gary Gray) [2017, США, боевик, триллер, криминал, приключения, BDRip 1080p] Dub (iTunes) + Sub Rus, Eng + Original Eng Galfimbul 2079324563619.37 GB 0 0 1499256306

15:05

5-Июл-17

Еще никто не оставлял запись к записи скачать торрент Форсаж 8 The Fate of the Furious . Будь первым!

!Обратная связь