Скачать через торрент Форсаж 8 The Fate of the Furious Фильм бесплатно в хорошем качестве torrent

Скачивайте на UnionPeer.org фильмы через торрент без регистрации. Новинки кино в хорошем качестве через торрент. На UnionPeer.org можно скачать через торрент фильмы 2014 и 2015 годов. Самые новые фильмы.

Скачать торрент Форсаж 8 The Fate of the Furious бесплатно через .torrent фильм мультфильм сериал

Статистика раздачи
Размер:  3.81 GB   |    Зарегистрирован:  3 года 10 месяцев   |    .torrent скачан:  18 раз   |   
Раздают:  1  
 

Скачать Форсаж 8 / The Fate of the Furious (2017) WEB-DLRip 720p от SuperMin | D | Open Matte через torrent

 
 
Автор Сообщение

Galfimbul

avatar Galfimbul


Форсаж 8 / The Fate of the Furious

Год выхода: 2017
Жанр: боевик, триллер, приключения
Режиссер: Ф. Гэри Грей
В ролях: Вин Дизель, Дуэйн Джонсон, Джейсон Стэйтем, Мишель Родригес, Тайриз Гибсон, Лудакрис, Натали Эммануэль, Курт Рассел, Скотт Иствуд, Шарлиз Терон, Хелен Миррен, Эльза Патаки


Пристегните ремни - гонка продолжается. Гавана, Берлин, Нью-Йорк - для самой крутой команды в мире нет ничего невозможного, пока они вместе. Но когда на их пути окажется одна из самых красивых женщин на планете и по совместительству королева киберпреступности, дороги друзей разойдутся.



Страна: Китай, США, Япония
Студия: Universal Pictures
Продолжительность: 02:16:57
Перевод: Дубляж

Файл
Кодек: H.264
Качество: WEB-DLRip 720p
Видео: 1280x720 (16:9), 2896 kbps, 23.976 fps
Звук: Русский (AC-3, 6ch, 448 kbps)
Оригинал (AC-3, 6ch, 640 kbps)
Субтитры: русские, английские

General
Unique ID : 300922169637852703626439473624153670901 (0xE263807243F11B04E8AEBF6DCFBD44F5)
Complete name : F:ФИЛЬМЫРУТОРФорсаж 8 (Open Matte) WEB-DLRip 720p.mkv
Format : Matroska
Format version : Version 4
File size : 3.81 GiB
Duration : 2 h 16 min
Overall bit rate : 3 986 kb/s
Movie name : Форсаж 8 / The Fate of the Furious (2017) (Театральная) (Open Matte) - #LORDKILL#
Encoded date : UTC 2020-04-10 14:45:23
Writing application : mkvmerge v32.0.0 ('Astral Progressions') 64-bit
Writing library : libebml v1.3.7 + libmatroska v1.5.0

Video
ID : 1
Format : AVC
Format/Info : Advanced Video Codec
Format profile : [email protected]
Format settings : CABAC / 9 Ref Frames
Format settings, CABAC : Yes
Format settings, Reference : 9 frames
Codec ID : V_MPEG4/ISO/AVC
Duration : 2 h 16 min
Bit rate : 2 896 kb/s
Width : 1 280 pixels
Height : 720 pixels
Display aspect ratio : 16:9
Frame rate mode : Constant
Frame rate : 23.976 (24000/1001) FPS
Color space : YUV
Chroma subsampling : 4:2:0
Bit depth : 8 bits
Scan type : Progressive
Bits/(Pixel*Frame) : 0.131
Stream size : 2.77 GiB (73%)
Writing library : x264 core 159 r2991 1771b55
Encoding settings : cabac=1 / ref=9 / deblock=1:-2:-2 / analyse=0x3:0x113 / me=umh / subme=10 / psy=1 / psy_rd=1.00:0.20 / mixed_ref=1 / me_range=32 / chroma_me=1 / trellis=2 / 8x8dct=1 / cqm=0 / deadzone=21,11 / fast_pskip=0 / chroma_qp_offset=-3 / threads=12 / lookahead_threads=2 / sliced_threads=0 / nr=0 / decimate=1 / interlaced=0 / bluray_compat=0 / constrained_intra=0 / bframes=8 / b_pyramid=2 / b_adapt=2 / b_bias=0 / direct=1 / weightb=1 / open_gop=0 / weightp=2 / keyint=240 / keyint_min=23 / scenecut=40 / intra_refresh=0 / rc=crf / mbtree=0 / crf=20.5 / qcomp=0.60 / qpmin=0 / qpmax=69 / qpstep=4 / ip_ratio=1.40 / pb_ratio=1.30 / aq=1:1.00
Default : Yes
Forced : No

Audio #1
ID : 2
Format : AC-3
Format/Info : Audio Coding 3
Commercial name : Dolby Digital
Codec ID : A_AC3
Duration : 2 h 16 min
Bit rate mode : Constant
Bit rate : 448 kb/s
Channel(s) : 6 channels
Channel layout : L R C LFE Ls Rs
Sampling rate : 48.0 kHz
Frame rate : 31.250 FPS (1536 SPF)
Compression mode : Lossy
Stream size : 439 MiB (11%)
Title : Дубляж
Language : Russian
Service kind : Complete Main
Default : Yes
Forced : No

Audio #2
ID : 3
Format : E-AC-3
Format/Info : Enhanced AC-3
Commercial name : Dolby Digital Plus
Codec ID : A_EAC3
Duration : 2 h 16 min
Bit rate mode : Constant
Bit rate : 640 kb/s
Channel(s) : 6 channels
Channel layout : L R C LFE Ls Rs
Sampling rate : 48.0 kHz
Frame rate : 31.250 FPS (1536 SPF)
Compression mode : Lossy
Stream size : 627 MiB (16%)
Title : Оригинал - Amazon
Language : English
Service kind : Complete Main
Default : No
Forced : No

Text #1
ID : 4
Format : UTF-8
Codec ID : S_TEXT/UTF8
Codec ID/Info : UTF-8 Plain Text
Duration : 2 h 7 min
Bit rate : 1 b/s
Count of elements : 43
Stream size : 1.57 KiB (0%)
Title : Captions, BluRay
Language : Russian
Default : Yes
Forced : No

Text #2
ID : 5
Format : UTF-8
Codec ID : S_TEXT/UTF8
Codec ID/Info : UTF-8 Plain Text
Duration : 2 h 14 min
Bit rate : 76 b/s
Count of elements : 1513
Stream size : 75.9 KiB (0%)
Title : Full, BluRay
Language : Russian
Default : No
Forced : No

Text #3
ID : 6
Format : UTF-8
Codec ID : S_TEXT/UTF8
Codec ID/Info : UTF-8 Plain Text
Duration : 2 h 3 min
Bit rate : 51 b/s
Count of elements : 1516
Stream size : 46.9 KiB (0%)
Title : Full, BluRay
Language : English
Default : No
Forced : No

Text #4
ID : 7
Format : UTF-8
Codec ID : S_TEXT/UTF8
Codec ID/Info : UTF-8 Plain Text
Duration : 2 h 16 min
Bit rate : 67 b/s
Count of elements : 2360
Stream size : 67.5 KiB (0%)
Title : Full, SDH, Amazon
Language : English
Default : No
Forced : No
Источник http://listRutor.org

Внимание! AdBlock блокирует показ скриншотов, все вопросы к разработчикам )))
Трекер:  [ 10-Апр-2020 18:40 ]

  

Скачать .torrent

Размер .torrent файла 19 KB


Размер: 3.81 GB
Хэш (hash) релиза: 7156b954a1c7de8cffeb081fb4771092b2bb8b30
Подписка на обновления:

Торренты, похожие на Форсаж 8 The Fate of the Furious скачать торрент

Форум Название Автор Размер S L Добавлен
Зарубежные фильмы 2016-2019 (Новинки зарубежного кино) ·%· Форсаж 8 / The Fate of the Furious (2017) WEB-DLRip-AVC от ExKinoRay | D | Open Matte Galfimbul 782906543747 MB 0 0 1573841428

21:10

15-Ноя-19

Зарубежные фильмы 2016-2019 (Новинки зарубежного кино) ·%· Форсаж 8 / The Fate of the Furious (2017) WEBRip 720p от HDReactor | D, A | Director's Extended Cut Galfimbul 61846188855.76 GB 0 0 1555874409

22:20

21-Апр-19

Зарубежные фильмы 2016-2019 (Новинки зарубежного кино) ·%· Форсаж 8 / The Fate of the Furious (2017) WEBRip 720p | D | Director's Extended Cut Galfimbul 37188640593.46 GB 0 0 1555697437

21:10

19-Апр-19

Зарубежные фильмы 2016-2019 (Новинки зарубежного кино) ·%· Форсаж 8 / The Fate of the Furious (2017) WEBRip 1080p | D | Director's Extended Cut Galfimbul 87008868228.1 GB 0 0 1555683607

17:20

19-Апр-19

Зарубежные фильмы 2016-2019 (Новинки зарубежного кино) ·%· Форсаж 8 / The Fate of the Furious (2017) WEBRip 1080p | D, A | Director's Extended Cut Galfimbul 44759256694.17 GB 0 0 1555653612

09:00

19-Апр-19

Зарубежные фильмы до 2016 ·%· Форсаж 8 / The Fate of the Furious (Ф. Гэри Грей / F. Gary Gray) [2017, Китай, США, Япония, Боевик, триллер, криминал, DVD5 (сжатый)] исх. R5, Dub + Sub Rus + Original Eng Galfimbul 46963322884.37 GB 0 0 1531162964

22:02

9-Июл-18

Зарубежные фильмы до 2016 ·· Форсаж 8 / The Fate of the Furious (Ф. Гэри Грей / F. Gary Gray) [2017, Китай, США, Япония, Боевик, триллер, криминал, DVD9+DVD5] R5 Dub + Sub Rus + Original Eng [2-ух дисковое издание] Galfimbul 95068323848.85 GB 0 0 1524751335

17:02

26-Апр-18

Зарубежные фильмы 2016-2019 (Новинки зарубежного кино) ·· Форсаж 8 / The Fate of the Furious (Ф. Гэри Грей / F. Gary Gray) [2017, Китай, США, Япония, боевик, триллер, криминал, приключения, WEB-DLRip] [Theatrical Cut, Open Matte] Dub + Sub (Rus, Eng) + Original Eng Galfimbul 23389552612.18 GB 0 0 1516685439

08:30

23-Янв-18

Зарубежные фильмы до 2016 ·· Форсаж 8 / The Fate of the Furious (Ф. Гэри Грей / F. Gary Gray) [2017, Китай, США, Япония, боевик, триллер, криминал, приключения, WEB-DL 1080p] [Theatrical Cut, Open Matte] Dub + VO + Original Eng + Sub Rus, Eng Galfimbul 1512459744514.09 GB 0 0 1516488376

01:46

21-Янв-18

Зарубежные фильмы 2016-2019 (Новинки зарубежного кино) ·· Форсаж 8 / The Fate of the Furious (Ф. Гэри Грей / F. Gary Gray) [2017, США, боевик, криминал, приключения, BDRip] AVO (Юрий Живов) Galfimbul 22372065282.08 GB 0 0 1516203016

18:30

17-Янв-18

Зарубежные фильмы 2016-2019 (Новинки зарубежного кино) ·· Форсаж 8 / The Fate of the Furious (Ф. Гэри Грей / F. Gary Gray) [2017, США, боевик, триллер, криминал, приключения, WEBRip-AVC] [Локализованный видеоряд] Dub + Sub Rus Eng + Original Eng Galfimbul 31399647512.92 GB 0 0 1507840219

23:30

12-Окт-17

Зарубежные фильмы до 2016 ·· Форсаж 8 / The Fate of the Furious (Ф. Гэри Грей / F. Gary Gray) [2017, США, боевик, триллер, криминал, приключения, BD> DVD5 (Custom)] DUB + Sub Rus / Eng + Original Eng Galfimbul 46320680964.31 GB 0 0 1503596170

20:36

24-Авг-17

Зарубежные фильмы до 2016 ·· Форсаж 8 / The Fate of the Furious (Ф. Гэри Грей / F. Gary Gray) [2017, США, боевик, триллер, криминал, приключения, BD> DVD9 (Custom)] DUB + DTS + Sub Rus / Eng + Original Eng Galfimbul 85004492807.92 GB 0 0 1503345968

23:06

21-Авг-17

Трейлеры и дополнительные материалы ·· Форсаж 8 / The Fate of the Furious (Ф. Гэри Грей) [2017, Боевик | Триллер | Криминал, BDRip 720p] дополнительные материалы Galfimbul 22981410262.14 GB 0 0 1503128028

10:33

19-Авг-17

Зарубежные фильмы до 2016 ·· Форсаж 8 / The Fate of the Furious (Ф. Гэри Грей / F. Gary Gray) [2017, США, боевик, триллер, криминал, приключения, Blu-ray disc 1080p] [CEE] Dub + Sub Rus, Eng + Original Eng Galfimbul 4584391728242.7 GB 0 0 1502644166

20:09

13-Авг-17

Зарубежные фильмы 2016-2019 (Новинки зарубежного кино) ·· Форсаж 8 / The Fate of the Furious (Ф. Гэри Грей / F. Gary Gray) [2017, США, боевик, триллер, криминал, приключения, BDRip 720p] Лицензия Galfimbul 79306153547.39 GB 0 0 1502541614

15:40

12-Авг-17

Зарубежные фильмы 2016-2019 (Новинки зарубежного кино) ·· Форсаж 8 / The Fate of the Furious (Ф. Гэри Грей / F. Gary Gray) [2017, США, боевик, триллер, криминал, приключения, Blu-Ray CEE 1080p] Лицензия Galfimbul 4584391728242.7 GB 2 0 1502541009

15:30

12-Авг-17

Зарубежные фильмы 2016-2019 (Новинки зарубежного кино) ·· Форсаж 8 / The Fate of the Furious (Ф. Гэри Грей / F. Gary Gray) [2017, США, боевик, триллер, криминал, приключения, BDRip-HEVC 1080p | iTunes Galfimbul 72300681256.73 GB 0 0 1499542218

22:30

8-Июл-17

Зарубежные фильмы до 2016 ·· Форсаж 8 / The Fate of the Furious (Ф. Гэри Грей / F. Gary Gray) [2017, США, боевик, триллер, криминал, приключения, BDRip 1080p] Dub (iTunes) + Sub Rus, Eng + Original Eng Galfimbul 2079324563619.37 GB 0 0 1499256306

15:05

5-Июл-17

Еще никто не оставлял запись к записи скачать торрент Форсаж 8 The Fate of the Furious . Будь первым!

!Обратная связь