Скачать через торрент Девять жизней Nine Lives Фильм бесплатно в хорошем качестве torrent

Скачивайте на UnionPeer.org фильмы через торрент без регистрации. Новинки кино в хорошем качестве через торрент. На UnionPeer.org можно скачать через торрент фильмы 2014 и 2015 годов. Самые новые фильмы.

Скачать торрент Девять жизней Nine Lives бесплатно через .torrent фильм мультфильм сериал

Статистика раздачи
Размер:  2.71 GB   |    Зарегистрирован:  7 лет 4 месяца   |    .torrent скачан:  312 раз   |   
Раздают:  1  
 

Скачать Девять жизней / Nine Lives (Барри Зонненфельд) [2014, фэнтези, комедия, семейный, WEBRip 1080p] Звук с TS через torrent

 
 
Автор Сообщение

Galfimbul

avatar Galfimbul


Девять жизней / Nine Lives

Год выпуска: 2016
Жанр: Фэнтези, комедия, семейный
Режиссер: Бэрри Зонненфельд
В ролях: Кевин Спейси, Дженнифер Гарнер, Робби Амелл, Шерил Хайнс, Марк Консуэлос, Малина Вайсман, Кристофер Уокен, Талита Бейтман, Тедди Сирс, Джей Пэттерсон

О фильме:
Том Бренд — миллиардер-трудоголик с чудинкой. Он с головой погружен в работу и немного выпал из семейной жизни — даже подарок дочери он покупает в последний момент. Ребекка мечтает о настоящем коте, и как бы Том ни презирал животных, он отправляется в зоомагазин, где выбирает самого роскошного кота по кличке Мистер Пушистые Штаны. В спешке на праздник дочери Том попадает в аварию, а очнувшись, обнаруживает себя в теле этого самого кота. Пока Том-человек отсыпается в больнице, Том-Пушистые Штаны вынужден на собственной шкуре испытать все прелести кошачьей жизни и вернуть любовь семьи, чтобы не остаться навсегда в роли питомца. Благо, жена и дочь принимают кота как родного. Но как заставить их разглядеть в Мистере Пушистые Штаны раскаявшегося отца семейства?



Страна: Франция, Китай
Студия: EuropaCorp, Fundamental Films, Transfilm
Продолжительность: 01:27:04
Перевод: Дублированный [звук с TS]

Файл
Кодек: MPEG-4-AVC
Качество: WEBRip (1080p)
Видео: 4066 Кбит/с, 1920x1036
Звук: Русский (AC3, 2 ch, 384 Кбит/с)
Субтитры: Китайские [Вшитые]

ПРИСУТСТВУЕТ РЕКЛАМА!

Семпл
Общее
Уникальный идентификатор : 203987795623198016592944931894681854683 (0x99769ED1BFEAC0C9BB48FA141EB2E2DB)
Полное имя : D:Nine.Lives.2016.Dt.WEBRip.1O8Op_KOSHARA.mkv
Формат : Matroska
Версия формата : Version 2
Размер файла : 2,71 Гбайт
Продолжительность : 1 ч. 27 м.
Режим общего битрейта : Переменный
Общий поток : 4452 Кбит/сек
Дата кодирования : UTC 2016-10-20 15:35:15
Программа кодирования : mkvmerge v8.3.0 ('Over the Horizon') 64bit
Библиотека кодирования : libebml v1.3.1 + libmatroska v1.4.2

Видео
Идентификатор : 1
Формат : AVC
Формат/Информация : Advanced Video Codec
Профиль формата : [email protected]
Параметр CABAC формата : Да
Параметр ReFrames формата : 4 кадра
Идентификатор кодека : V_MPEG4/ISO/AVC
Продолжительность : 1 ч. 27 м.
Вид битрейта : Переменный
Битрейт : 4066 Кбит/сек
Максимальный битрейт : 5000 Кбит/сек
Ширина : 1920 пикселей
Высота : 1036 пикселей
Соотношение сторон : 1,85:1
Режим частоты кадров : Постоянный
Частота кадров : 24,000 кадра/сек
Стандарт вещания : Component
Цветовое пространство : YUV
Субдискретизация насыщенности : 4:2:0
Битовая глубина : 8 бит
Тип развёртки : Прогрессивная
Бит/(Пиксели*Кадры) : 0.085
Размер потока : 2,48 Гбайт (91%)
Default : Да
Forced : Нет
Цветовой диапазон : Limited
Основные цвета : BT.709
Характеристики трансфера : BT.709
Коэффициенты матрицы : BT.709

Аудио
Идентификатор : 2
Формат : AC-3
Формат/Информация : Audio Coding 3
Расширение режима : CM (complete main)
Параметр Endianness формата : Big
Идентификатор кодека : A_AC3
Продолжительность : 1 ч. 27 м.
Вид битрейта : Постоянный
Битрейт : 384 Кбит/сек
Каналы : 2 канала
Расположение каналов : Front: L R
Частота : 48,0 КГц
Частота кадров : 31,250 кадров/сек (1536 spf)
Метод сжатия : С потерями
Размер потока : 240 Мбайт (9%)
Default : Да
Forced : Нет


Внимание! AdBlock блокирует показ скриншотов, все вопросы к разработчикам )))
Трекер:  [ 24-Окт-2016 01:30 ]

  

Скачать .torrent

Размер .torrent файла 14 KB


Размер: 2.71 GB
Хэш (hash) релиза: f4d6e203a1ee77ec7fe2849d445c1f29518f7ef9
Подписка на обновления:

Торренты, похожие на Девять жизней Nine Lives скачать торрент

Форум Название Автор Размер S L Добавлен
Зарубежные фильмы 2016-2019 (Новинки зарубежного кино) ·· Девять жизней / Nine Lives (Бэрри Зонненфельд / Barry Sonnenfeld) [2016, Франция, Китай, Канада, фэнтези, комедия, семейный, BDRip-AVC] Dub (iTunes) + Sub Eng + Original Eng Galfimbul 28739851522.68 GB 0 0 1514665810

23:30

30-Дек-17

Зарубежные фильмы 2016-2019 (Новинки зарубежного кино) ·· Девять жизней / Nine Lives (Бэрри Зонненфельд / Barry Sonnenfeld) [2016, Франция, Китай, Фэнтези, комедия, семейный, HDRip] Dub (iTunes) Galfimbul 784146124748 MB 0 0 1478966975

19:09

12-Ноя-16

Зарубежные фильмы до 2016 ·· Девять жизней / Nine Lives (Барри Зонненфельд) [2014, фэнтези, комедия, семейный, HDRip] iTunes Galfimbul 14671585281.37 GB 0 0 1478735006

02:43

10-Ноя-16

Зарубежные фильмы до 2016 ·· Девять жизней / Nine Lives (Барри Зонненфельд) [2014, фэнтези, комедия, семейный, BDRip 720p] iTunes Galfimbul 56563767235.27 GB 0 0 1478724505

23:48

9-Ноя-16

Зарубежные фильмы до 2016 ·· Девять жизней / Nine Lives (Барри Зонненфельд) [2014, фэнтези, комедия, семейный, BDRip 1080p] iTunes Galfimbul 1429438355213.31 GB 0 0 1478722509

23:15

9-Ноя-16

Зарубежные фильмы до 2016 ·· Девять жизней / Nine Lives (Барри Зонненфельд) [2014, фэнтези, комедия, семейный, HDRip] Line Galfimbul 14673735681.37 GB 0 0 1477545107

08:11

27-Окт-16

Зарубежные фильмы до 2016 ·· Девять жизней / Nine Lives (Барри Зонненфельд) [2014, фэнтези, комедия, семейный, WEBRip] Звук с TS Galfimbul 14675128321.37 GB 0 0 1476999781

00:43

21-Окт-16

Зарубежные фильмы до 2016 ·· Девять жизней Рождества / The Nine Lives of Christmas (Марк Жан / Mark Jean) [2014, США, мелодрама, комедия, SATRip] DVO (т/к "Астана") Galfimbul 14506065921.35 GB 0 0 1516527015

12:30

21-Янв-18

Зарубежные сериалы ·· Диснейленд  - Девять жизней Эльфего Бака / Disneyland  - The Nine Lives of Elfego Baca / Сезон: 5 / Серии: 1-6 из 10 (Норман Фостер / Кристиан Найби) [1958, США, Вестерн, HDRip, DVDRip] VO + Original Eng + Subs Rus Galfimbul 44436248634.14 GB 0 0 1488789508

11:38

6-Мар-17

Зарубежные сериалы ·· Девять жизней Эльфего Бака: Закон и Порядок / The Nine Lives of Elfego Baca: Law and Order, Incorporated (Кристиан Найби / Christian Nyby) [1958, США, Вестерн, TVRip] VO + Original Eng Galfimbul 789809152753 MB 0 0 1481043169

19:52

6-Дек-16

Зарубежные сериалы ·· Девять жизней Эльфего Бака: Юрист?.. Или стрелок? / The Nine Lives of Elfego Baca: Lawman or Gunman? (Кристиан Найби / Christian Nyby) [1958, США, Вестерн, TVRip] VO + Original Eng Galfimbul 603678720576 MB 0 0 1477059594

17:19

21-Окт-16

Зарубежные фильмы до 2016 ·· Девять жизней Рождества / The Nine Lives Of Christmas (Марк Джин / Mark Jean) [2014, США, Комедия, мелодрама, HDTVrip 720p] Galfimbul 26283257752.45 GB 0 0 1420464327

16:25

5-Янв-15

Зарубежные фильмы до 2016 ·· Девять жизней Рождества / The Nine Lives Of Christmas (Марк Джин / Mark Jean) [2014, США, Комедия, мелодрама, HDTVRip-AVC] Sub Rus + Original Eng Galfimbul 24673903592.3 GB 0 0 1420205390

16:29

2-Янв-15

Видео для Консолей ·· [MULT4PSP] Девять жизней кота Фрица / The Nine Lives of Fritz the Cat [Роберт Тэйлор][1974 г., анимация, комедия, DVDRip][Одноголосый] Galfimbul 356493623340 MB 0 0 1340306100

22:15

21-Июн-12

Еще никто не оставлял запись к записи скачать торрент Девять жизней Nine Lives . Будь первым!

!Обратная связь