Скачать через торрент Девять жизней Nine Lives Фильм бесплатно в хорошем качестве torrent

Скачивайте на UnionPeer.org фильмы через торрент без регистрации. Новинки кино в хорошем качестве через торрент. На UnionPeer.org можно скачать через торрент фильмы 2014 и 2015 годов. Самые новые фильмы.

Скачать торрент Девять жизней Nine Lives бесплатно через .torrent фильм мультфильм сериал

Статистика раздачи
Размер:  13.31 GB   |    Зарегистрирован:  7 лет 3 месяца   |    .torrent скачан:  305 раз   |   
Раздают:  1  
 

Скачать Девять жизней / Nine Lives (Барри Зонненфельд) [2014, фэнтези, комедия, семейный, BDRip 1080p] iTunes через torrent

 
 
Автор Сообщение

Galfimbul

avatar Galfimbul


Девять жизней /Nine Lives

Год выхода: 2016
Жанр: Фэнтези, комедия, семейный
Режиссер: Бэрри Зонненфельд
В ролях: Кевин Спейси, Дженнифер Гарнер, Робби Амелл, Шерил Хайнс, Марк Консуэлос, Малина Вайсман, Кристофер Уокен, Талита Бейтман, Тедди Сирс, Джей Пэттерсон

О фильме:
Том Бренд — миллиардер-трудоголик с чудинкой. Он с головой погружен в работу и немного выпал из семейной жизни — даже подарок дочери он покупает в последний момент. Ребекка мечтает о настоящем коте, и как бы Том ни презирал животных, он отправляется в зоомагазин, где выбирает самого роскошного кота по кличке Мистер Пушистые Штаны. В спешке на праздник дочери Том попадает в аварию, а очнувшись, обнаруживает себя в теле этого самого кота. Пока Том-человек отсыпается в больнице, Том-Пушистые Штаны вынужден на собственной шкуре испытать все прелести кошачьей жизни и вернуть любовь семьи, чтобы не остаться навсегда в роли питомца. Благо, жена и дочь принимают кота как родного. Но как заставить их разглядеть в Мистере Пушистые Штаны раскаявшегося отца семейства?


Страна: Франция, Китай
Студия: EuropaCorp, Fundamental Films, Transfilm
Продолжительность: 01:26:50
Перевод: Дублированный | iTunes

Файл
Кодек: MPEG4 Video (H264)
Качество: BDRip 1080p | iTunes
Видео: 1920x1038, 20065 Kbps, 23.976fp
Звук:
Аудио 1: AC3, 6 ch, 384 kbps, CBR - Русский
Аудио 2: DTS, 6 ch, 1509 kbps, CBR - Английский
Субтитры: Английские
Общее
Уникальный идентификатор : 228515831206985442933180596235366188126 (0xABEA8C5769927F049F0F49CC117A445E)
Полное имя : Nine Lives.2016.BDRip.1080p.mkv
Формат : Matroska
Версия формата : Version 2
Размер файла : 13,3 Гбайт
Продолжительность : 1 ч. 26 м.
Общий поток : 21,9 Мбит/сек
Дата кодирования : UTC 2016-11-09 19:31:40
Программа кодирования : mkvmerge v4.0.0 ('The Stars were mine') сборка от Jun 6 2010 16:18:42
Библиотека кодирования : libebml v1.0.0 + libmatroska v1.0.0

Видео
Идентификатор : 1
Формат : AVC
Формат/Информация : Advanced Video Codec
Профиль формата : [email protected]
Параметр CABAC формата : Да
Параметр ReFrames формата : 4 кадра
Идентификатор кодека : V_MPEG4/ISO/AVC
Продолжительность : 1 ч. 26 м.
Битрейт : 20,1 Мбит/сек
Ширина : 1920 пикселей
Высота : 1038 пикселей
Соотношение сторон : 1,85:1
Режим частоты кадров : Постоянный
Частота кадров : 23,976 (24000/1001) кадра/сек
Цветовое пространство : YUV
Субдискретизация насыщенности : 4:2:0
Битовая глубина : 8 бит
Тип развёртки : Прогрессивная
Бит/(Пиксели*Кадры) : 0.420
Размер потока : 11,9 Гбайт (89%)
Библиотека кодирования : x264 core 148 r2638 7599210
Настройки программы : cabac=1 / ref=4 / deblock=1:-3:-3 / analyse=0x3:0x133 / me=umh / subme=11 / psy=1 / psy_rd=1.10:0.25 / mixed_ref=1 / me_range=64 / chroma_me=1 / trellis=2 / 8x8dct=1 / cqm=0 / deadzone=21,11 / fast_pskip=0 / chroma_qp_offset=-4 / threads=6 / lookahead_threads=1 / sliced_threads=0 / nr=0 / decimate=1 / interlaced=0 / bluray_compat=0 / constrained_intra=0 / bframes=16 / b_pyramid=2 / b_adapt=2 / b_bias=0 / direct=3 / weightb=1 / open_gop=0 / weightp=2 / keyint=240 / keyint_min=23 / scenecut=40 / intra_refresh=0 / rc_lookahead=150 / rc=2pass / mbtree=1 / bitrate=20065 / ratetol=1.0 / qcomp=0.60 / qpmin=0 / qpmax=69 / qpstep=4 / cplxblur=20.0 / qblur=0.5 / vbv_maxrate=62500 / vbv_bufsize=78125 / nal_hrd=none / filler=0 / ip_ratio=1.40 / aq=2:1.00
Язык : English
Default : Нет
Forced : Нет

Аудио #1
Идентификатор : 2
Формат : AC-3
Формат/Информация : Audio Coding 3
Расширение режима : CM (complete main)
Параметр Endianness формата : Big
Идентификатор кодека : A_AC3
Продолжительность : 1 ч. 26 м.
Вид битрейта : Постоянный
Битрейт : 384 Кбит/сек
Каналы : 6 каналов
Расположение каналов : Front: L C R, Side: L R, LFE
Частота : 48,0 КГц
Частота кадров : 31,250 кадров/сек (1536 spf)
Битовая глубина : 16 бит
Метод сжатия : С потерями
Размер потока : 239 Мбайт (2%)
Заголовок : DUB | iTunes
Язык : Russian
Default : Да
Forced : Да

Аудио #2
Идентификатор : 3
Формат : DTS
Формат/Информация : Digital Theater Systems
Режим : 16
Параметр Endianness формата : Big
Идентификатор кодека : A_DTS
Продолжительность : 1 ч. 26 м.
Вид битрейта : Постоянный
Битрейт : 1509 Кбит/сек
Каналы : 6 каналов
Расположение каналов : Front: L C R, Side: L R, LFE
Частота : 48,0 КГц
Частота кадров : 93,750 кадра/сек (512 spf)
Битовая глубина : 24 бит
Метод сжатия : С потерями
Размер потока : 937 Мбайт (7%)
Язык : English
Default : Нет
Forced : Нет

Текст
Идентификатор : 4
Формат : UTF-8
Идентификатор кодека : S_TEXT/UTF8
Идентификатор кодека/Информация : UTF-8 Plain Text
Язык : English
Default : Нет
Forced : Нет

Меню
00:00:00.000 : en:Chapter 1
00:09:57.471 : en:Chapter 2
00:20:21.011 : en:Chapter 3
00:30:52.851 : en:Chapter 4
00:39:22.276 : en:Chapter 5
00:49:29.299 : en:Chapter 6
01:00:11.774 : en:Chapter 7
01:09:54.648 : en:Chapter 8
01:19:27.888 : en:Chapter 9


Внимание! AdBlock блокирует показ скриншотов, все вопросы к разработчикам )))
Трекер:  [ 09-Ноя-2016 23:00 ]

  

Скачать .torrent

Размер .torrent файла 67 KB


Размер: 13.31 GB
Хэш (hash) релиза: f5325b83a543d326bb988a188af15f92c89ee1dc
Подписка на обновления:

Торренты, похожие на Девять жизней Nine Lives скачать торрент

Форум Название Автор Размер S L Добавлен
Зарубежные фильмы 2016-2019 (Новинки зарубежного кино) ·· Девять жизней / Nine Lives (Бэрри Зонненфельд / Barry Sonnenfeld) [2016, Франция, Китай, Канада, фэнтези, комедия, семейный, BDRip-AVC] Dub (iTunes) + Sub Eng + Original Eng Galfimbul 28739851522.68 GB 0 0 1514665810

23:30

30-Дек-17

Зарубежные фильмы 2016-2019 (Новинки зарубежного кино) ·· Девять жизней / Nine Lives (Бэрри Зонненфельд / Barry Sonnenfeld) [2016, Франция, Китай, Фэнтези, комедия, семейный, HDRip] Dub (iTunes) Galfimbul 784146124748 MB 0 0 1478966975

19:09

12-Ноя-16

Зарубежные фильмы до 2016 ·· Девять жизней / Nine Lives (Барри Зонненфельд) [2014, фэнтези, комедия, семейный, HDRip] iTunes Galfimbul 14671585281.37 GB 0 0 1478735006

02:43

10-Ноя-16

Зарубежные фильмы до 2016 ·· Девять жизней / Nine Lives (Барри Зонненфельд) [2014, фэнтези, комедия, семейный, BDRip 720p] iTunes Galfimbul 56563767235.27 GB 0 0 1478724505

23:48

9-Ноя-16

Зарубежные фильмы до 2016 ·· Девять жизней / Nine Lives (Барри Зонненфельд) [2014, фэнтези, комедия, семейный, HDRip] Line Galfimbul 14673735681.37 GB 0 0 1477545107

08:11

27-Окт-16

Зарубежные фильмы до 2016 ·· Девять жизней / Nine Lives (Барри Зонненфельд) [2014, фэнтези, комедия, семейный, WEBRip 1080p] Звук с TS Galfimbul 29124542742.71 GB 0 0 1477262631

01:43

24-Окт-16

Зарубежные фильмы до 2016 ·· Девять жизней / Nine Lives (Барри Зонненфельд) [2014, фэнтези, комедия, семейный, WEBRip] Звук с TS Galfimbul 14675128321.37 GB 0 0 1476999781

00:43

21-Окт-16

Зарубежные фильмы до 2016 ·· Девять жизней Рождества / The Nine Lives of Christmas (Марк Жан / Mark Jean) [2014, США, мелодрама, комедия, SATRip] DVO (т/к "Астана") Galfimbul 14506065921.35 GB 0 0 1516527015

12:30

21-Янв-18

Зарубежные сериалы ·· Диснейленд  - Девять жизней Эльфего Бака / Disneyland  - The Nine Lives of Elfego Baca / Сезон: 5 / Серии: 1-6 из 10 (Норман Фостер / Кристиан Найби) [1958, США, Вестерн, HDRip, DVDRip] VO + Original Eng + Subs Rus Galfimbul 44436248634.14 GB 0 0 1488789508

11:38

6-Мар-17

Зарубежные сериалы ·· Девять жизней Эльфего Бака: Закон и Порядок / The Nine Lives of Elfego Baca: Law and Order, Incorporated (Кристиан Найби / Christian Nyby) [1958, США, Вестерн, TVRip] VO + Original Eng Galfimbul 789809152753 MB 0 0 1481043169

19:52

6-Дек-16

Зарубежные сериалы ·· Девять жизней Эльфего Бака: Юрист?.. Или стрелок? / The Nine Lives of Elfego Baca: Lawman or Gunman? (Кристиан Найби / Christian Nyby) [1958, США, Вестерн, TVRip] VO + Original Eng Galfimbul 603678720576 MB 0 0 1477059594

17:19

21-Окт-16

Зарубежные фильмы до 2016 ·· Девять жизней Рождества / The Nine Lives Of Christmas (Марк Джин / Mark Jean) [2014, США, Комедия, мелодрама, HDTVrip 720p] Galfimbul 26283257752.45 GB 0 0 1420464327

16:25

5-Янв-15

Зарубежные фильмы до 2016 ·· Девять жизней Рождества / The Nine Lives Of Christmas (Марк Джин / Mark Jean) [2014, США, Комедия, мелодрама, HDTVRip-AVC] Sub Rus + Original Eng Galfimbul 24673903592.3 GB 0 0 1420205390

16:29

2-Янв-15

Видео для Консолей ·· [MULT4PSP] Девять жизней кота Фрица / The Nine Lives of Fritz the Cat [Роберт Тэйлор][1974 г., анимация, комедия, DVDRip][Одноголосый] Galfimbul 356493623340 MB 0 0 1340306100

22:15

21-Июн-12

Еще никто не оставлял запись к записи скачать торрент Девять жизней Nine Lives . Будь первым!

!Обратная связь