Скачать через торрент Девять жизней Nine Lives Фильм бесплатно в хорошем качестве torrent

Скачивайте на UnionPeer.org фильмы через торрент без регистрации. Новинки кино в хорошем качестве через торрент. На UnionPeer.org можно скачать через торрент фильмы 2014 и 2015 годов. Самые новые фильмы.

Скачать торрент Девять жизней Nine Lives бесплатно через .torrent фильм мультфильм сериал

Статистика раздачи
Размер:  748 MB   |    Зарегистрирован:  7 лет 3 месяца   |    .torrent скачан:  188 раз   |   
Раздают:  1  
 

Скачать Девять жизней / Nine Lives (Бэрри Зонненфельд / Barry Sonnenfeld) [2016, Франция, Китай, Фэнтези, комедия, семейный, HDRip] Dub (iTunes) через torrent

 
 
Автор Сообщение

Galfimbul

avatar Galfimbul


<span class="post-font-sans1">Девять жизней / Nine Lives

Страна: Франция, Китай
Жанр: Фэнтези, комедия, семейный
Год выпуска: 2016
Продолжительность: 01:26:50
Перевод: Профессиональный (дублированный) iTunes
Cубтитры: нет
Режиссер: Бэрри Зонненфельд / Barry Sonnenfeld
В ролях: Кевин Спейси, Дженнифер Гарнер, Робби Амелл, Шерил Хайнс, Марк Консуэлос, Малина Вайсман, Кристофер Уокен, Талита Бейтман, Тедди Сирс, Джей Пэттерсон
Описание: Том Бренд — миллиардер-трудоголик с чудинкой. Он с головой погружен в работу и немного выпал из семейной жизни — даже подарок дочери он покупает в последний момент. Ребекка мечтает о настоящем коте, и как бы Том ни презирал животных, он отправляется в зоомагазин, где выбирает самого роскошного кота по кличке Мистер Пушистые Штаны. В спешке на праздник дочери Том попадает в аварию, а очнувшись, обнаруживает себя в теле этого самого кота. Пока Том-человек отсыпается в больнице, Том-Пушистые Штаны вынужден на собственной шкуре испытать все прелести кошачьей жизни и вернуть любовь семьи, чтобы не остаться навсегда в роли питомца. Благо, жена и дочь принимают кота как родного. Но как заставить их разглядеть в Мистере Пушистые Штаны раскаявшегося отца семейства?
/
Релиз от: MegaPeer
Качество видео: HDRip | Исх. Nine Lives.2016.BDRip.720p
Формат видео: AVI

Видео: 656x352 (1.86:1), 23.976 fps, XviD build 73 ~1070 kbps avg, 0.19 bit/pixel
Аудио: 48 kHz, MPEG Layer 3, 2 ch, ~128.00 kbps avg
</span>
ОбщееПолное имя : D:\Nine.Lives.2016.HDRip.745MB.MegaPeer.aviФормат : AVIФормат/Информация : Audio Video InterleaveРазмер файла : 748 МбайтПродолжительность : 1 ч. 26 м.Общий поток : 1204 Кбит/сек

ВидеоИдентификатор : 0Формат : MPEG-4 VisualПрофиль формата : Advanced Simple@L5Параметр BVOP формата : 1Параметр QPel формата : НетПараметр GMC формата : Без точки переходаПараметр матрицы формата : ВыборочнаяИдентификатор кодека : XVIDИдентификатор кодека/Подсказка : XviDПродолжительность : 1 ч. 26 м.Битрейт : 1070 Кбит/секШирина : 656 пикселейВысота : 352 пикселяСоотношение сторон : 1,85:1Частота кадров : 23,976 (24000/1001) кадра/секЦветовое пространство : YUVСубдискретизация насыщенности : 4:2:0Битовая глубина : 8 битТип развёртки : ПрогрессивнаяМетод сжатия : С потерямиБит/(Пиксели*Кадры) : 0.193Размер потока : 665 Мбайт (89%)Библиотека кодирования : XviD 73

АудиоИдентификатор : 1Формат : MPEG AudioВерсия формата : Version 1Профиль формата : Layer 3Режим : Joint stereoРасширение режима : MS StereoИдентификатор кодека : 55Идентификатор кодека/Подсказка : MP3Продолжительность : 1 ч. 26 м.Вид битрейта : ПостоянныйБитрейт : 128 Кбит/секКаналы : 2 каналаЧастота : 48,0 КГцМетод сжатия : С потерямиРазмер потока : 79,4 Мбайт (11%)Выравнивание : Соединение по промежуткамПродолжительность промежутка : 167 мс. (4,01 видеокадра)Время предзагрузки промежутка : 216 мс.Заголовок : iTunesБиблиотека кодирования : LAME3.99rНастройки программы : -m j -V 4 -q 2 -lowpass 17 -b 128



Внимание! AdBlock блокирует показ скриншотов, все вопросы к разработчикам )))
Трекер:  [ 12-Ноя-2016 17:30 ]

  

Скачать .torrent

Размер .torrent файла 15 KB


Размер: 748 MB
Хэш (hash) релиза: ebe28f10b8697b5aa15333c62abf3386ee238795
Подписка на обновления:

Торренты, похожие на Девять жизней Nine Lives скачать торрент

Форум Название Автор Размер S L Добавлен
Зарубежные фильмы 2016-2019 (Новинки зарубежного кино) ·· Девять жизней / Nine Lives (Бэрри Зонненфельд / Barry Sonnenfeld) [2016, Франция, Китай, Канада, фэнтези, комедия, семейный, BDRip-AVC] Dub (iTunes) + Sub Eng + Original Eng Galfimbul 28739851522.68 GB 0 0 1514665810

23:30

30-Дек-17

Зарубежные фильмы до 2016 ·· Девять жизней / Nine Lives (Барри Зонненфельд) [2014, фэнтези, комедия, семейный, HDRip] iTunes Galfimbul 14671585281.37 GB 0 0 1478735006

02:43

10-Ноя-16

Зарубежные фильмы до 2016 ·· Девять жизней / Nine Lives (Барри Зонненфельд) [2014, фэнтези, комедия, семейный, BDRip 720p] iTunes Galfimbul 56563767235.27 GB 0 0 1478724505

23:48

9-Ноя-16

Зарубежные фильмы до 2016 ·· Девять жизней / Nine Lives (Барри Зонненфельд) [2014, фэнтези, комедия, семейный, BDRip 1080p] iTunes Galfimbul 1429438355213.31 GB 0 0 1478722509

23:15

9-Ноя-16

Зарубежные фильмы до 2016 ·· Девять жизней / Nine Lives (Барри Зонненфельд) [2014, фэнтези, комедия, семейный, HDRip] Line Galfimbul 14673735681.37 GB 0 0 1477545107

08:11

27-Окт-16

Зарубежные фильмы до 2016 ·· Девять жизней / Nine Lives (Барри Зонненфельд) [2014, фэнтези, комедия, семейный, WEBRip 1080p] Звук с TS Galfimbul 29124542742.71 GB 0 0 1477262631

01:43

24-Окт-16

Зарубежные фильмы до 2016 ·· Девять жизней / Nine Lives (Барри Зонненфельд) [2014, фэнтези, комедия, семейный, WEBRip] Звук с TS Galfimbul 14675128321.37 GB 0 0 1476999781

00:43

21-Окт-16

Зарубежные фильмы до 2016 ·· Девять жизней Рождества / The Nine Lives of Christmas (Марк Жан / Mark Jean) [2014, США, мелодрама, комедия, SATRip] DVO (т/к "Астана") Galfimbul 14506065921.35 GB 0 0 1516527015

12:30

21-Янв-18

Зарубежные сериалы ·· Диснейленд  - Девять жизней Эльфего Бака / Disneyland  - The Nine Lives of Elfego Baca / Сезон: 5 / Серии: 1-6 из 10 (Норман Фостер / Кристиан Найби) [1958, США, Вестерн, HDRip, DVDRip] VO + Original Eng + Subs Rus Galfimbul 44436248634.14 GB 0 0 1488789508

11:38

6-Мар-17

Зарубежные сериалы ·· Девять жизней Эльфего Бака: Закон и Порядок / The Nine Lives of Elfego Baca: Law and Order, Incorporated (Кристиан Найби / Christian Nyby) [1958, США, Вестерн, TVRip] VO + Original Eng Galfimbul 789809152753 MB 0 0 1481043169

19:52

6-Дек-16

Зарубежные сериалы ·· Девять жизней Эльфего Бака: Юрист?.. Или стрелок? / The Nine Lives of Elfego Baca: Lawman or Gunman? (Кристиан Найби / Christian Nyby) [1958, США, Вестерн, TVRip] VO + Original Eng Galfimbul 603678720576 MB 0 0 1477059594

17:19

21-Окт-16

Зарубежные фильмы до 2016 ·· Девять жизней Рождества / The Nine Lives Of Christmas (Марк Джин / Mark Jean) [2014, США, Комедия, мелодрама, HDTVrip 720p] Galfimbul 26283257752.45 GB 0 0 1420464327

16:25

5-Янв-15

Зарубежные фильмы до 2016 ·· Девять жизней Рождества / The Nine Lives Of Christmas (Марк Джин / Mark Jean) [2014, США, Комедия, мелодрама, HDTVRip-AVC] Sub Rus + Original Eng Galfimbul 24673903592.3 GB 0 0 1420205390

16:29

2-Янв-15

Видео для Консолей ·· [MULT4PSP] Девять жизней кота Фрица / The Nine Lives of Fritz the Cat [Роберт Тэйлор][1974 г., анимация, комедия, DVDRip][Одноголосый] Galfimbul 356493623340 MB 0 0 1340306100

22:15

21-Июн-12

Еще никто не оставлял запись к записи скачать торрент Девять жизней Nine Lives . Будь первым!

!Обратная связь