Скачать через торрент Девять жизней Nine Lives Фильм бесплатно в хорошем качестве torrent

Скачивайте на UnionPeer.org фильмы через торрент без регистрации. Новинки кино в хорошем качестве через торрент. На UnionPeer.org можно скачать через торрент фильмы 2014 и 2015 годов. Самые новые фильмы.

Скачать торрент Девять жизней Nine Lives бесплатно через .torrent фильм мультфильм сериал

Статистика раздачи
Размер:  2.68 GB   |    Зарегистрирован:  6 лет 1 месяц   |    .torrent скачан:  96 раз   |   
Раздают:  1  
   
 
Автор Сообщение

Galfimbul

avatar Galfimbul


Девять жизней / Nine Lives

Страна: Франция, Китай, Канада
Жанр: Фэнтези, комедия, семейный
Год выпуска: 2016
Продолжительность: 01:26:50

Перевод: Профессиональный (дублированный) iTunes
Субтитры: Английские (Full, SDH, SDH-Colored)
Оригинальная аудиодорожка: Английский
Навигация по главам: ЕстьРежиссер: Бэрри Зонненфельд / Barry SonnenfeldВ ролях: Кевин Спейси, Дженнифер Гарнер, Робби Амелл, Шерил Хайнс, Марк Консуэлос, Малина Вайсман, Кристофер Уокен, Талита Бейтман, Тедди Сирс, Джей Пэттерсон...Описание: Том Бренд — миллиардер-трудоголик с чудинкой. Он с головой погружен в работу и немного выпал из семейной жизни — даже подарок дочери он покупает в последний момент. Ребекка мечтает о настоящем коте, и как бы Том ни презирал животных, он отправляется в зоомагазин, где выбирает самого роскошного кота по кличке Мистер Пушистые Штаны. В спешке на праздник дочери Том попадает в аварию, а очнувшись, обнаруживает себя в теле этого самого кота. Пока Том-человек отсыпается в больнице, Том-Пушистые Штаны вынужден на собственной шкуре испытать все прелести кошачьей жизни и вернуть любовь семьи, чтобы не остаться навсегда в роли питомца. Благо, жена и дочь принимают кота как родного. Но как заставить их разглядеть в Мистере Пушистые Штаны раскаявшегося отца семейства?Доп. информация: | IMDB | КиноПоиск | Сэмпл | Качество видео: BDRip-AVC Nine Lives (2016) 1080p BD-Remux nnm-club
Формат видео: MKV

Видео: AVC, 1132x612 (1.85:1), 3578 Kbps, 23.976 fps, 0.215 bit/pixel.
Аудио 1: AC3 Dolby Digital, 3/2 (L,C,R,l,r) + LFE ch, 48.0 KHz, 384 Kbps
Аудио 2: AC3 Dolby Digital, 3/2 (L,C,R,l,r) + LFE ch, 48.0 KHz, 448 Kbps
Формат субтитров: softsub (SRT)
<div class="sp-wrap">
<div class="sp-head folded">x264</div>
<div class="sp-body">raw [info]: 1132x612p 1:1 @ 24000/1001 fps (cfr)
x264 [info]: using SAR=1/1
x264 [info]: using cpu capabilities: MMX2 SSE2Fast SSSE3 SSE4.2 AVX
x264 [info]: profile High, level 4.1
x264 [info]: frame I:1382 Avg QP:16.26 size:117180
x264 [info]: frame P:25231 Avg QP:18.23 size: 37849
x264 [info]: frame B:98318 Avg QP:19.68 size: 12344
x264 [info]: consecutive B-frames: 2.1% 1.1% 4.7% 18.6% 17.8% 45.6% 5.1% 2.0% 1.2% 0.8% 1.0%
x264 [info]: mb I I16..4: 12.5% 63.4% 24.1%
x264 [info]: mb P I16..4: 1.3% 10.3% 2.3% P16..4: 35.6% 25.1% 16.4% 0.0% 0.0% skip: 9.1%
x264 [info]: mb B I16..4: 0.1% 0.9% 0.3% B16..8: 34.3% 10.3% 3.0% direct: 7.1% skip:43.9% L0:44.8% L1:39.6% BI:15.6%
x264 [info]: 8x8 transform intra:71.3% inter:54.1%
x264 [info]: coded y,uvDC,uvAC intra: 85.5% 91.5% 82.2% inter: 20.7% 32.7% 24.0%
x264 [info]: i16 v,h,dc,p: 35% 12% 16% 36%
x264 [info]: i8 v,h,dc,ddl,ddr,vr,hd,vl,hu: 17% 12% 11% 7% 10% 11% 10% 10% 12%
x264 [info]: i4 v,h,dc,ddl,ddr,vr,hd,vl,hu: 30% 9% 5% 7% 11% 11% 10% 9% 9%
x264 [info]: i8c dc,h,v,p: 48% 18% 18% 16%
x264 [info]: Weighted P-Frames: Y:4.3% UV:1.6%
x264 [info]: ref P L0: 45.4% 9.5% 19.2% 6.0% 6.4% 3.7% 4.0% 1.8% 2.2% 1.7% 0.1% 0.0%
x264 [info]: ref B L0: 66.5% 13.6% 7.1% 4.0% 3.2% 2.5% 1.9% 0.9% 0.3%
x264 [info]: ref B L1: 92.7% 7.3%
x264 [info]: kb/s:3578.10
General
Unique ID : 222501512534812119526932144172744372181 (0xA7643B8975C90DF19A1B4004BFB8EFD5)
Complete name : Nine Lives (2016).mkv
Format : Matroska
Format version : Version 4 / Version 2
File size : 2.68 GiB
Duration : 1 h 26 min
Overall bit rate : 4 412 kb/s
Movie name : Nine Lives / Девять жизней (2016)
Encoded date : UTC 2017-12-22 07:45:37
Writing application : mkvmerge v8.1.0 ('Psychedelic Postcard') 64bit
Writing library : libebml v1.3.1 + libmatroska v1.4.2
Cover : Yes
Attachments : cover.jpg

Video
ID : 1
Format : AVC
Format/Info : Advanced Video Codec
Format profile : [email protected]
Format settings : CABAC / 10 Ref Frames
Format settings, CABAC : Yes
Format settings, ReFrames : 10 frames
Codec ID : V_MPEG4/ISO/AVC
Duration : 1 h 26 min
Bit rate : 3 578 kb/s
Width : 1 132 pixels
Height : 612 pixels
Display aspect ratio : 1.85:1
Frame rate mode : Constant
Frame rate : 23.976 (24000/1001) FPS
Color space : YUV
Chroma subsampling : 4:2:0
Bit depth : 8 bits
Scan type : Progressive
Bits/(Pixel*Frame) : 0.215
Stream size : 2.17 GiB (81%)
Title : Nine Lives (2016) By optik.1557
Writing library : x264 core 152 r2851kMod ba24899
Encoding settings : cabac=1 / ref=10 / deblock=1:-2:-1 / analyse=0x3:0x113 / me=umh / subme=10 / psy=1 / fade_compensate=0.00 / psy_rd=1.03:0.20 / mixed_ref=1 / me_range=32 / chroma_me=1 / trellis=2 / 8x8dct=1 / cqm=0 / deadzone=21,11 / fast_pskip=0 / chroma_qp_offset=-3 / threads=6 / lookahead_threads=1 / sliced_threads=0 / nr=0 / decimate=0 / interlaced=0 / bluray_compat=0 / constrained_intra=0 / bframes=10 / b_pyramid=2 / b_adapt=2 / b_bias=0 / direct=1 / weightb=1 / open_gop=0 / weightp=2 / keyint=250 / keyint_min=23 / scenecut=40 / intra_refresh=0 / rc_lookahead=60 / rc=crf / mbtree=0 / crf=18.3000 / qcomp=0.60 / qpmin=0 / qpmax=69 / qpstep=4 / vbv_maxrate=50000 / vbv_bufsize=62500 / crf_max=0.0 / nal_hrd=none / filler=0 / ip_ratio=1.40 / pb_ratio=1.30 / aq=3:0.80
Language : English
Default : Yes
Forced : No

Audio #1
ID : 2
Format : AC-3
Format/Info : Audio Coding 3
Codec ID : A_AC3
Duration : 1 h 26 min
Bit rate mode : Constant
Bit rate : 384 kb/s
Channel(s) : 6 channels
Channel positions : Front: L C R, Side: L R, LFE
Sampling rate : 48.0 kHz
Frame rate : 31.250 FPS (1536 SPF)
Bit depth : 16 bits
Compression mode : Lossy
Stream size : 238 MiB (9%)
Title : Дубляж (iTunes)
Language : Russian
Service kind : Complete Main
Default : Yes
Forced : No

Audio #2
ID : 3
Format : AC-3
Format/Info : Audio Coding 3
Codec ID : A_AC3
Duration : 1 h 26 min
Bit rate mode : Constant
Bit rate : 448 kb/s
Channel(s) : 6 channels
Channel positions : Front: L C R, Side: L R, LFE
Sampling rate : 48.0 kHz
Frame rate : 31.250 FPS (1536 SPF)
Bit depth : 16 bits
Compression mode : Lossy
Stream size : 278 MiB (10%)
Title : Original
Language : English
Service kind : Complete Main
Default : No
Forced : No

Text #1
ID : 4
Format : UTF-8
Codec ID : S_TEXT/UTF8
Codec ID/Info : UTF-8 Plain Text
Duration : 1 h 20 min
Bit rate : 70 b/s
Count of elements : 1404
Stream size : 41.6 KiB (0%)
Title : Full
Language : English
Default : No
Forced : No

Text #2
ID : 5
Format : UTF-8
Codec ID : S_TEXT/UTF8
Codec ID/Info : UTF-8 Plain Text
Duration : 1 h 20 min
Bit rate : 78 b/s
Count of elements : 1604
Stream size : 46.0 KiB (0%)
Title : SDH
Language : English
Default : No
Forced : No

Text #3
ID : 6
Format : UTF-8
Codec ID : S_TEXT/UTF8
Codec ID/Info : UTF-8 Plain Text
Duration : 1 h 20 min
Bit rate : 98 b/s
Count of elements : 1602
Stream size : 58.2 KiB (0%)
Title : SDH-Colored
Language : English
Default : No
Forced : No

Menu
00:00:00.000 : en:(01)00:00:00:000
00:09:57.471 : en:(02)00:09:57:471
00:20:21.011 : en:(03)00:20:21:011
00:30:52.851 : en:(04)00:30:52:851
00:39:22.276 : en:(05)00:39:22:276
00:49:29.299 : en:(06)00:49:29:299
01:00:11.774 : en:(07)01:00:11:774
01:09:54.648 : en:(08)01:09:54:648
01:19:27.888 : en:(09)01:19:27:888
01:26:49.370 : en:(10)01:26:49:370</div>
</div>

Внимание! AdBlock блокирует показ скриншотов, все вопросы к разработчикам )))
Трекер:  [ 30-Дек-2017 23:30 ]

  

Скачать .torrent

Размер .torrent файла 14 KB


Размер: 2.68 GB
Хэш (hash) релиза: 645b771b454f558f8cc65ab954e89545e826f4ba
Подписка на обновления:

Торренты, похожие на Девять жизней Nine Lives скачать торрент

Форум Название Автор Размер S L Добавлен
Зарубежные фильмы 2016-2019 (Новинки зарубежного кино) ·· Девять жизней / Nine Lives (Бэрри Зонненфельд / Barry Sonnenfeld) [2016, Франция, Китай, Фэнтези, комедия, семейный, HDRip] Dub (iTunes) Galfimbul 784146124748 MB 0 0 1478966975

19:09

12-Ноя-16

Зарубежные фильмы до 2016 ·· Девять жизней / Nine Lives (Барри Зонненфельд) [2014, фэнтези, комедия, семейный, HDRip] iTunes Galfimbul 14671585281.37 GB 0 0 1478735006

02:43

10-Ноя-16

Зарубежные фильмы до 2016 ·· Девять жизней / Nine Lives (Барри Зонненфельд) [2014, фэнтези, комедия, семейный, BDRip 720p] iTunes Galfimbul 56563767235.27 GB 0 0 1478724505

23:48

9-Ноя-16

Зарубежные фильмы до 2016 ·· Девять жизней / Nine Lives (Барри Зонненфельд) [2014, фэнтези, комедия, семейный, BDRip 1080p] iTunes Galfimbul 1429438355213.31 GB 0 0 1478722509

23:15

9-Ноя-16

Зарубежные фильмы до 2016 ·· Девять жизней / Nine Lives (Барри Зонненфельд) [2014, фэнтези, комедия, семейный, HDRip] Line Galfimbul 14673735681.37 GB 0 0 1477545107

08:11

27-Окт-16

Зарубежные фильмы до 2016 ·· Девять жизней / Nine Lives (Барри Зонненфельд) [2014, фэнтези, комедия, семейный, WEBRip 1080p] Звук с TS Galfimbul 29124542742.71 GB 0 0 1477262631

01:43

24-Окт-16

Зарубежные фильмы до 2016 ·· Девять жизней / Nine Lives (Барри Зонненфельд) [2014, фэнтези, комедия, семейный, WEBRip] Звук с TS Galfimbul 14675128321.37 GB 0 0 1476999781

00:43

21-Окт-16

Зарубежные фильмы до 2016 ·· Девять жизней Рождества / The Nine Lives of Christmas (Марк Жан / Mark Jean) [2014, США, мелодрама, комедия, SATRip] DVO (т/к "Астана") Galfimbul 14506065921.35 GB 0 0 1516527015

12:30

21-Янв-18

Зарубежные сериалы ·· Диснейленд  - Девять жизней Эльфего Бака / Disneyland  - The Nine Lives of Elfego Baca / Сезон: 5 / Серии: 1-6 из 10 (Норман Фостер / Кристиан Найби) [1958, США, Вестерн, HDRip, DVDRip] VO + Original Eng + Subs Rus Galfimbul 44436248634.14 GB 0 0 1488789508

11:38

6-Мар-17

Зарубежные сериалы ·· Девять жизней Эльфего Бака: Закон и Порядок / The Nine Lives of Elfego Baca: Law and Order, Incorporated (Кристиан Найби / Christian Nyby) [1958, США, Вестерн, TVRip] VO + Original Eng Galfimbul 789809152753 MB 0 0 1481043169

19:52

6-Дек-16

Зарубежные сериалы ·· Девять жизней Эльфего Бака: Юрист?.. Или стрелок? / The Nine Lives of Elfego Baca: Lawman or Gunman? (Кристиан Найби / Christian Nyby) [1958, США, Вестерн, TVRip] VO + Original Eng Galfimbul 603678720576 MB 0 0 1477059594

17:19

21-Окт-16

Зарубежные фильмы до 2016 ·· Девять жизней Рождества / The Nine Lives Of Christmas (Марк Джин / Mark Jean) [2014, США, Комедия, мелодрама, HDTVrip 720p] Galfimbul 26283257752.45 GB 0 0 1420464327

16:25

5-Янв-15

Зарубежные фильмы до 2016 ·· Девять жизней Рождества / The Nine Lives Of Christmas (Марк Джин / Mark Jean) [2014, США, Комедия, мелодрама, HDTVRip-AVC] Sub Rus + Original Eng Galfimbul 24673903592.3 GB 0 0 1420205390

16:29

2-Янв-15

Видео для Консолей ·· [MULT4PSP] Девять жизней кота Фрица / The Nine Lives of Fritz the Cat [Роберт Тэйлор][1974 г., анимация, комедия, DVDRip][Одноголосый] Galfimbul 356493623340 MB 0 0 1340306100

22:15

21-Июн-12

Еще никто не оставлял запись к записи скачать торрент Девять жизней Nine Lives . Будь первым!

!Обратная связь