Скачать через торрент Ночная смена Фильм бесплатно в хорошем качестве torrent

Скачивайте на UnionPeer.org фильмы через торрент без регистрации. Новинки кино в хорошем качестве через торрент. На UnionPeer.org можно скачать через торрент фильмы 2014 и 2015 годов. Самые новые фильмы.

Скачать торрент Ночная смена бесплатно через .torrent фильм мультфильм сериал

Статистика раздачи
Размер:  742 MB   |    Зарегистрирован:  12 дней   |    .torrent скачан:  268 раз   |   
Раздают:  5  
   
загрузка...
 
Автор Сообщение

Galfimbul

avatar Galfimbul


Название: Ночная смена
Год выпуска: 2018
Жанр: Комедия
Режиссер: Марюс Вайсберг
В ролях: Владимир Яглыч, Павел Деревянко, Ксения Теплова, Наталья Бардо, Игорь Жижикин, Валентина Мазунина, Елена Валюшкина, Сергей Глушко, Эмин Агаларов, Наталья Бочкарёва

О фильме :
Макс теряет работу на заводе и, чтобы прокормить семью, вынужден согласиться на неожиданное предложение бывшей одноклассницы - поработать стриптизером. Скрывая новую профессию от жены Ани, Макс попадает в массу удивительных и нелепых ситуаций и в итоге теряет доверие любимой женщины. Стремясь вернуть мир и гармонию в семью, он обращается за помощью к коллегам из стрип-клуба, что и вовсе приводит к веселому хаосу...



Страна: Россия
Продолжительность: 01:31:54
Язык: Русский | iTunes

Файл
Формат: MKV
Качество: WEB-DLRip-AVC
Видео: MPEG-4 AVC, 768x432, ~ 1058 Кбит/с
Аудио: AAC-HE, 2 ch, ~ 76 Кбит/с
Субтитры: Нет
Общее
Уникальный идентификатор : 229727319876721829183250216099051767265 (0xACD3DF5830F017C0A78C89AE0AAC85E1)
Полное имя : D:MOVIESNochnayaSmena.2018.ExKinoRay.mkv
Формат : Matroska
Версия формата : Version 4 / Version 2
Размер файла : 742 Мбайт
Продолжительность : 1 ч. 31 м.
Общий поток : 1128 Кбит/сек
Дата кодирования : UTC 2018-08-05 10:20:23
Программа кодирования : mkvmerge v15.0.0 ('Duel with the Devil') 64-bit
Библиотека кодирования : libebml v1.3.5 + libmatroska v1.4.5

Видео
Идентификатор : 1
Формат : AVC
Формат/Информация : Advanced Video Codec
Профиль формата : High@L4.1
Параметр CABAC формата : Да
Параметр RefFrames формата : 12 кадров
Идентификатор кодека : V_MPEG4/ISO/AVC
Продолжительность : 1 ч. 31 м.
Битрейт : 1058 Кбит/сек
Ширина : 768 пикселей
Высота : 432 пикселя
Соотношение сторон : 16:9
Режим частоты кадров : Постоянный
Частота кадров : 25,000 кадров/сек
Цветовое пространство : YUV
Субдискретизация насыщенности : 4:2:0
Битовая глубина : 8 бит
Тип развёртки : Прогрессивная
Бит/(Пиксели*Кадры) : 0.128
Размер потока : 691 Мбайт (93%)
Библиотека кодирования : x264 core 152 r2851kMod ba24899
Настройки программы : cabac=1 / ref=12 / deblock=1:-3:-3 / analyse=0x3:0x133 / me=umh / subme=10 / psy=1 / fade_compensate=0.00 / psy_rd=1.00:0.16 / mixed_ref=1 / me_range=32 / chroma_me=1 / trellis=2 / 8x8dct=1 / cqm=0 / deadzone=21,11 / fast_pskip=0 / chroma_qp_offset=-3 / threads=6 / lookahead_threads=1 / sliced_threads=0 / nr=0 / decimate=0 / interlaced=0 / bluray_compat=0 / constrained_intra=0 / bframes=11 / b_pyramid=2 / b_adapt=2 / b_bias=0 / direct=3 / weightb=1 / open_gop=0 / weightp=2 / keyint=250 / keyint_min=24 / scenecut=40 / intra_refresh=0 / rc_lookahead=40 / rc=2pass / mbtree=1 / bitrate=1058 / ratetol=1.0 / qcomp=0.60 / qpmin=0 / qpmax=69 / qpstep=4 / cplxblur=20.0 / qblur=0.5 / ip_ratio=1.40 / aq=3:1.00
Default : Да
Forced : Нет

Аудио
Идентификатор : 2
Формат : AAC
Формат/Информация : Advanced Audio Codec
Профиль формата : HE-AAC / LC
Идентификатор кодека : A_AAC
Продолжительность : 1 ч. 31 м.
Битрейт : 76,0 Кбит/сек
Каналы : 2 канала
Расположение каналов : Front: L R
Частота : 48,0 КГц / 24,0 КГц
Частота кадров : 23,438 кадра/сек (1024 SPF)
Метод сжатия : С потерями
Задержка видео : 31 мс.
Размер потока : 50,0 Мбайт (7%)
Default : Да
Forced : Нет

Меню
00:00:00.000 : en:Глава 1
00:06:44.400 : en:Глава 2
00:14:25.360 : en:Глава 3
00:19:18.760 : en:Глава 4
00:25:01.200 : en:Глава 5
00:30:46.480 : en:Глава 6
00:36:09.960 : en:Глава 7
00:42:14.360 : en:Глава 8
00:47:15.200 : en:Глава 9
00:53:52.120 : en:Глава 10
00:59:51.200 : en:Глава 11
01:04:44.040 : en:Глава 12
01:10:35.760 : en:Глава 13
01:17:36.520 : en:Глава 14
01:22:50.840 : en:Глава 15
Источник http://BlaTor.org

Трекер:  [ 05-Авг-2018 13:30 ]

  

Скачать .torrent

Размер .torrent файла 15 KB


Размер: 742 MB
Хэш (hash) релиза: ff80af74dbb059db163e6d9bd038d290568aad56
Подписка на обновления:

Торренты, похожие на Ночная смена скачать торрент

Форум Название Автор Размер S L Добавлен
Зарубежные фильмы до 2016 ·· Ночная смена / Смена кладбища / Graveyard Shift (Ральф С. Синглтон / Ralph S. Singleton) [1990, США, Япония, ужасы, DVDRip] MVO (NORD videofilm) Galfimbul 15664578561.46 GB 0 0 1348081740

22:09

19-Сен-12

Российские фильмы 2016-2018 (Новинки русского кино) ·%· Ночная смена (2018) WEB-DLRip-AVC от GeneralFilm | iTunes Galfimbul 15004338181.4 GB 2 0 1533422452

01:40

5-Авг-18

Российские фильмы 2016-2018 (Новинки русского кино) ·%· Ночная смена (2018) WEB-DLRip от Generalfilm | КПК | iTunes Galfimbul 365208559348 MB 0 0 1533327021

23:10

3-Авг-18

Российские фильмы 2016-2018 (Новинки русского кино) ·%· Ночная смена (2018) WEB-DLRip от GeneralFilm | iTunes Galfimbul 782718976746 MB 0 0 1533322231

21:50

3-Авг-18

Российские фильмы 2016-2018 (Новинки русского кино) ·%· Ночная смена (2017) WEB-DLRip-AVC от OlLanDGroup | iTunes Galfimbul 15648455371.46 GB 0 0 1533322217

21:50

3-Авг-18

Российские фильмы 2016-2018 (Новинки русского кино) ·%· Ночная смена (2018) WEB-DLRip от MegaPeer | iTunes Galfimbul 15713484801.46 GB 0 0 1533312609

19:10

3-Авг-18

Российские фильмы 2016-2018 (Новинки русского кино) ·%· Ночная смена (2018) WEB-DL 1080p | iTunes Galfimbul 38227983603.56 GB 8 0 1533302563

16:22

3-Авг-18

Зарубежные сериалы ·· Ночная смена / The Night Shift / Сезон: 4 / Серии: 1 из 10 (Джефф Джуда, Гейб Сакс / Jeff Judah, Gabe Sachs) [2017, США, драма, HDTVRip] DVO (Gears Media) + Original Galfimbul 556042754530 MB 0 0 1498683341

23:55

28-Июн-17

Зарубежные сериалы ·· Ночная смена / The Night Shift / Сезон: 4 / Серии: 1 из 10 (Джефф Джуда, Гейб Сакс / Jeff Judah, Gabe Sachs) [2017, США, драма, HDTV 720p] DVO (Gears Media) + Original Galfimbul 10545600321006 MB 0 0 1498647290

13:54

28-Июн-17

Зарубежные сериалы ·· Ночная смена / The Night Shift / Сезон: 2 / Серии: 11 из 14 (Джефф Джуда, Гейб Сакс / Jeff Judah, Gabe Sachs) [2015, США, драма, комедия, WEB-DLRip] MVO (Flux-Team) Galfimbul 65307033606.08 GB 0 0 1484335065

22:17

13-Янв-17

Зарубежные сериалы ·· Ночная смена / The Night Shift / Сезон: 2 / Серии: 1-10 из 14 (Джефф Джуда, Гейб Сакс / Jeff Judah, Gabe Sachs) [2015, США, драма, WEB-DL 720p] MVO (Flux-Team) + Original Galfimbul 1512488974114.09 GB 0 0 1478320853

07:40

5-Ноя-16

Зарубежные сериалы ·· Ночная смена / The Night Shift / Сезон: 2 / Серии: 1-9 из 14 (Джефф Джуда, Гейб Сакс / Jeff Judah, Gabe Sachs) [2015, США, драма, WEB-DL 720p] MVO (Flux-Team) + Original Galfimbul 1361558067712.68 GB 0 0 1475357154

00:25

2-Окт-16

Зарубежные сериалы ·· Ночная смена / The Night Shift / Сезон: 3 / Серии: 1-13 из 13 (Джефф Джуда, Гейб Сакс / Jeff Judah, Gabe Sachs) [2016, США, драма, HDTV 720p] DVO (Gears Media) + Original Galfimbul 1435372506013.37 GB 0 0 1473199785

01:09

7-Сен-16

Зарубежные сериалы ·· Ночная смена / The Night Shift / Сезон: 3 / Серии: 1-12 из 13 (Джефф Джуда, Гейб Сакс / Jeff Judah, Gabe Sachs) [2016, США, драма, HDTV 720p] DVO (Gears Media) + Original Galfimbul 1322220711412.31 GB 0 0 1472508810

01:13

30-Авг-16

Зарубежные сериалы ·· Ночная смена / The Night Shift / Сезон: 3 / Серии: 1-11 из 13 (Джефф Джуда, Гейб Сакс / Jeff Judah, Gabe Sachs) [2016, США, драма, HDTV 720p] DVO (Gears Media) + Original Galfimbul 1198191849511.16 GB 0 0 1471629776

21:02

19-Авг-16

Документальные фильмы и телепередачи ·· Пищевая фабрика / Food Factory, Сезон 5 (18 серий из 18) + bonus: Ночная смена / Night Shift Сезон 1 (8 серий из 8) [2015, Научно-популярный, HDTV 1080i] Galfimbul 3075292532028.64 GB 0 0 1469826757

00:12

30-Июл-16

Зарубежные сериалы ·· Ночная смена / The Night Shift / Сезон: 1 / Серии: 1-8 из 8 (Марта Кулидж, Кевин Даулинг, Пьер Морель) [2014, драма, WEB-DL 720p] MVO + Original + Eng(Sub) Galfimbul 1184857075411.03 GB 0 0 1468838518

13:41

18-Июл-16

Зарубежные сериалы ·· Ночная смена / The Night Shift / Сезон: 3 / Серии: 1-4 из 13 ( Марта Кулидж, Кевин Даулинг, Пьер Морель) [2016, драма, HDTV 720p] DVO (Gears Media) + Original Galfimbul 44241189474.12 GB 0 0 1468426323

19:12

13-Июл-16

Зарубежные сериалы ·· Ночная смена / The Night Shift / Сезон: 2 / Серии: 1-6 из 14 (Марта Кулидж, Кевин Даулинг, Пьер Морель) [2015, драма, WEB-DL 720p] MVO (Flux-Team) + Original Galfimbul 90112895068.39 GB 0 0 1466709772

22:22

23-Июн-16

Еще никто не оставлял запись к записи скачать торрент Ночная смена . Будь первым!

!Обратная связь